<?xml version="1.0" standalone="no"?>
<!DOCTYPE svg PUBLIC "-//W3C//DTD SVG 1.1//EN" "http://www.w3.org/Graphics/SVG/1.1/DTD/svg11.dtd" >
<svg xmlns="http://www.w3.org/2000/svg" xmlns:xlink="http://www.w3.org/1999/xlink" version="1.1">
<metadata>
Created by FontForge 20190801 at Mon Feb  5 11:33:35 2018
 By www-data
Copyright (c) 2018 by Livius Dietzel, Tom Hossfeld. All rights reserved.
</metadata>
<defs>
<font id="LitSansMedium_1" horiz-adv-x="600" >
  <font-face 
    font-family="LitSansMedium_1"
    font-weight="500"
    font-stretch="normal"
    units-per-em="1000"
    panose-1="2 11 6 4 4 0 0 0 0 0"
    ascent="800"
    descent="-200"
    x-height="515"
    cap-height="724"
    bbox="-406 -257 1213 988"
    underline-thickness="50"
    underline-position="-100"
    unicode-range="U+000D-FEFF"
  />
<missing-glyph horiz-adv-x="608" 
d="M71 710h466v-740h-466v740zM469 35v610h-330v-610h330z" />
    <glyph glyph-name="fi" unicode="fi" horiz-adv-x="575" 
d="M512 515v-515h-127v413h-166v-413h-127v413h-63v102h63v50q0 103 57.5 160t149.5 57q132 0 192 -86l-97 -80q-31 53 -95 53q-37 0 -58.5 -27.5t-21.5 -76.5v-50h293z" />
    <glyph glyph-name="fl" unicode="fl" horiz-adv-x="585" 
d="M395 770h127v-770h-127v413h-176v-413h-127v413h-63v102h63v50q0 103 57.5 160t149.5 57q26 0 39 -1v-115q-21 3 -39 3q-38 0 -59 -27.5t-21 -76.5v-50h176v255z" />
    <glyph glyph-name=".notdef" horiz-adv-x="608" 
d="M71 710h466v-740h-466v740zM469 35v610h-330v-610h330z" />
    <glyph glyph-name=".null" horiz-adv-x="0" 
 />
    <glyph glyph-name="nonmarkingreturn" horiz-adv-x="333" 
 />
    <glyph glyph-name="CR" unicode="&#xd;" horiz-adv-x="225" 
 />
    <glyph glyph-name="space" unicode=" " horiz-adv-x="225" 
 />
    <glyph glyph-name="exclam" unicode="!" horiz-adv-x="278" 
d="M74 724h130v-494h-130v494zM139 -12q-36 0 -62.5 26.5t-26.5 61.5q0 36 26.5 62.5t62.5 26.5q35 0 62 -26.5t26 -62.5q-1 -35 -27 -61.5t-61 -26.5z" />
    <glyph glyph-name="quotedbl" unicode="&#x22;" horiz-adv-x="404" 
d="M43 840h128l-13 -283h-101zM232 840h128l-13 -283h-101z" />
    <glyph glyph-name="numbersign" unicode="#" horiz-adv-x="672" 
d="M640 466h-102l-51 -208h85v-97h-108l-39 -161h-106l39 161h-143l-39 -161h-106l39 161h-77v97h101l51 208h-84v97h108l39 161h104l-39 -161h145l39 161h104l-39 -161h79v-97zM382 258l51 208h-144l-51 -208h144z" />
    <glyph glyph-name="dollar" unicode="$" 
d="M548 218q0 -84 -49.5 -142.5t-132.5 -78.5v-108h-127v103q-73 12 -123 53t-71 90l103 75q44 -100 152 -100q53 0 85.5 30t32.5 79q0 78 -107 115l-64 23q-155 55 -156 193q-1 61 41 112t107 67v86h127v-89q83 -23 130 -92l-97 -76q-40 58 -108 58q-30 0 -50.5 -20
t-20.5 -48q0 -50 64 -72l61 -22q203 -74 203 -236z" />
    <glyph glyph-name="percent" unicode="%" horiz-adv-x="842" 
d="M209 379q-75 0 -127.5 52t-52.5 126t52.5 126t127.5 52t127.5 -52t52.5 -126t-52.5 -126t-127.5 -52zM563 724h110l-395 -724h-111zM209 471q35 0 60 26t25 60t-25 60t-60 26t-59.5 -26t-24.5 -60t24.5 -60t59.5 -26zM633 -12q-75 0 -127.5 52t-52.5 126t52.5 126
t127.5 52t127.5 -52t52.5 -126t-52.5 -126t-127.5 -52zM633 80q35 0 60 26t25 60q0 35 -25 61t-60 26t-59.5 -26t-24.5 -61q0 -34 24.5 -60t59.5 -26z" />
    <glyph glyph-name="ampersand" unicode="&#x26;" horiz-adv-x="720" 
d="M713 398v-102h-148v-52q1 -107 -75 -181.5t-188 -74.5q-121 0 -194 69t-73 177q0 59 35 109t92 80q-71 52 -71 132q0 76 58 129t148 53q85 0 151 -45l-63 -100q-40 32 -88 32q-32 0 -54 -20t-22 -49q0 -34 23 -57t62 -24v-113q-56 0 -100 -36.5t-44 -90.5
q0 -56 36.5 -94.5t103.5 -38.5q63 0 99.5 43t36.5 100v52h-107l203 218h30v-116h149z" />
    <glyph glyph-name="quotesingle" unicode="'" horiz-adv-x="215" 
d="M43 840h128l-13 -283h-101z" />
    <glyph glyph-name="parenleft" unicode="(" horiz-adv-x="302" 
d="M155 321q0 -121 38.5 -249t92.5 -205l-94 -50q-61 83 -108.5 223t-47.5 281t47.5 281t108.5 223l94 -50q-54 -77 -92.5 -205t-38.5 -249z" />
    <glyph glyph-name="parenright" unicode=")" horiz-adv-x="302" 
d="M16 775l94 50q61 -83 108.5 -223t47.5 -281t-47.5 -281t-108.5 -223l-94 50q54 77 92.5 205t38.5 249t-38.5 249t-92.5 205z" />
    <glyph glyph-name="asterisk" unicode="*" horiz-adv-x="443" 
d="M73 371l76 97l-116 34l25 91l119 -40l-5 127h99l-4 -127l118 40l25 -91l-116 -34l76 -97l-77 -55l-71 106l-72 -106z" />
    <glyph glyph-name="plus" unicode="+" 
d="M242 252h-181v102h181v188h116v-188h181v-102h-181v-188h-116v188z" />
    <glyph glyph-name="comma" unicode="," horiz-adv-x="248" 
d="M135 -148h-78v301h144z" />
    <glyph glyph-name="hyphen" unicode="-" horiz-adv-x="406" 
d="M57 354h292v-102h-292v102z" />
    <glyph glyph-name="period" unicode="." horiz-adv-x="253" 
d="M127 -12q-36 0 -62.5 26.5t-26.5 61.5q0 36 26.5 62.5t62.5 26.5q35 0 62 -26.5t26 -62.5q-1 -35 -27 -61.5t-61 -26.5z" />
    <glyph glyph-name="slash" unicode="/" horiz-adv-x="484" 
d="M346 724h117l-325 -724h-116z" />
    <glyph glyph-name="zero" unicode="0" horiz-adv-x="676" 
d="M338 -12q-127 0 -211 101t-84 262t84 261.5t211 100.5t211 -100.5t84 -261.5t-84 -262t-211 -101zM338 110q72 0 118.5 67t46.5 174q0 106 -46.5 173t-118.5 67t-118.5 -67t-46.5 -173q0 -107 46.5 -174t118.5 -67z" />
    <glyph glyph-name="one" unicode="1" horiz-adv-x="366" 
d="M289 701v-701h-131v443h-153l244 258h40z" />
    <glyph glyph-name="two" unicode="2" horiz-adv-x="548" 
d="M28 40l225 262q1 2 13.5 16t15.5 18t14.5 17.5t16 19.5t14 19.5t14 21t11 19.5t9 20.5t5 19t2.5 19.5q0 48 -33 74.5t-82 26.5q-84 0 -134 -81l-82 76q26 51 81 89t135 38q107 0 176 -56t69 -159q0 -19 -5 -40t-11.5 -38t-19.5 -39.5t-21 -36t-25.5 -36t-24 -30.5
t-24 -29t-18.5 -22l-94 -111h244v-118h-471v40z" />
    <glyph glyph-name="three" unicode="3" horiz-adv-x="572" 
d="M491 661l-151 -199q88 -12 140 -67t52 -155q0 -109 -79.5 -180.5t-196.5 -71.5q-149 0 -241 100l73 97q33 -35 71 -55t97 -20q67 0 106.5 38.5t39.5 91.5q0 57 -43 95t-113 38q-60 0 -104 -8l159 218h-215v118h405v-40z" />
    <glyph glyph-name="four" unicode="4" horiz-adv-x="606" 
d="M475 701v-466h102v-117h-102v-118h-130v118h-346l436 583h40zM358 221v218l-160 -218h160z" />
    <glyph glyph-name="five" unicode="5" horiz-adv-x="566" 
d="M92 180q68 -70 166 -70q69 0 108.5 38.5t39.5 91.5q0 54 -45 84.5t-109 30.5q-72 0 -175 -14l58 360h330v-118h-234l-20 -113q40 7 66 7q113 0 186 -60.5t73 -176.5q0 -108 -81 -180t-197 -72q-149 0 -241 100z" />
    <glyph glyph-name="six" unicode="6" horiz-adv-x="597" 
d="M306 -12q-122 0 -194.5 74.5t-72.5 186.5q0 96 82 232l134 220h145l-134 -215q25 17 69 17q102 0 170 -73.5t68 -180.5q0 -109 -75.5 -185t-191.5 -76zM306 385q-59 0 -98 -42t-39 -98q0 -54 39 -94.5t98 -40.5t98 40.5t39 94.5q0 56 -38.5 98t-98.5 42z" />
    <glyph glyph-name="seven" unicode="7" horiz-adv-x="500" 
d="M483 661l-284 -661h-141l250 583h-278v118h453v-40z" />
    <glyph glyph-name="eight" unicode="8" 
d="M437 430q57 -31 91 -82t34 -112q0 -104 -77 -177t-185 -73q-115 0 -188.5 71.5t-73.5 178.5q0 63 32.5 114.5t89.5 80.5q-46 43 -46 107q0 77 52 127t134 50q80 0 133 -50.5t53 -126.5q0 -66 -49 -108zM300 611q-30 0 -51.5 -21.5t-21.5 -51.5t21.5 -51t51.5 -21t51.5 21
t21.5 51t-21.5 51.5t-51.5 21.5zM300 108q54 0 93 36.5t39 88.5q0 53 -39 89.5t-93 36.5t-93 -36.5t-39 -89.5q0 -52 39 -88.5t93 -36.5z" />
    <glyph glyph-name="nine" unicode="9" horiz-adv-x="597" 
d="M291 713q122 0 194.5 -74.5t72.5 -186.5q0 -96 -82 -232l-134 -220h-145l134 215q-25 -17 -69 -17q-102 0 -170 73.5t-68 180.5q0 109 75.5 185t191.5 76zM291 316q59 0 98 42t39 98q0 54 -39 94.5t-98 40.5t-98 -40.5t-39 -94.5q0 -56 38.5 -98t98.5 -42z" />
    <glyph glyph-name="colon" unicode=":" horiz-adv-x="287" 
d="M144 350q-36 0 -62.5 26.5t-26.5 61.5q0 36 26.5 62.5t62.5 26.5t62.5 -26.5t25.5 -62.5q-1 -35 -27 -61.5t-61 -26.5zM144 -12q-36 0 -62.5 26.5t-26.5 61.5q0 36 26.5 62.5t62.5 26.5t62.5 -26.5t25.5 -62.5q-1 -35 -27 -61.5t-61 -26.5z" />
    <glyph glyph-name="semicolon" unicode=";" horiz-adv-x="287" 
d="M146 350q-36 0 -62.5 26.5t-26.5 61.5q0 36 26.5 62.5t62.5 26.5t62.5 -26.5t25.5 -62.5q-1 -35 -27 -61.5t-61 -26.5zM220 128l-67 -271h-82v291h149v-20z" />
    <glyph glyph-name="less" unicode="&#x3c;" 
d="M39 303l479 241v-127l-252 -114l252 -113v-128z" />
    <glyph glyph-name="equal" unicode="=" 
d="M60 478h479v-102h-479v102zM60 229h479v-102h-479v102z" />
    <glyph glyph-name="greater" unicode="&#x3e;" 
d="M561 303l-479 -241v128l252 113l-252 114v127z" />
    <glyph glyph-name="question" unicode="?" horiz-adv-x="461" 
d="M26 614q55 121 181 121q88 0 150 -50t62 -130q0 -93 -98 -216l-88 -112l-92 71l84 107q64 82 64 138q0 30 -23.5 48.5t-58.5 18.5q-33 0 -58 -19.5t-37 -52.5zM210 -12q-36 0 -62.5 26.5t-26.5 61.5q0 36 26.5 62.5t62.5 26.5t62.5 -26.5t25.5 -62.5q-1 -35 -27 -61.5
t-61 -26.5z" />
    <glyph glyph-name="at" unicode="@" horiz-adv-x="1006" 
d="M507 -177q-204 0 -339.5 132.5t-135.5 341.5q0 210 134.5 347.5t340.5 137.5q200 0 331.5 -123.5t131.5 -304.5q0 -135 -70 -216.5t-147 -81.5q-99 0 -137 69q-54 -68 -153 -68q-90 0 -151 67t-61 168t61 168.5t149 67.5q84 0 129 -50v43h125v-298q0 -62 42 -62
q40 0 71 47t31 141q0 142 -98.5 237t-253.5 95q-159 0 -261.5 -108t-102.5 -276q0 -165 102 -269.5t262 -104.5q96 0 171 39l43 -91q-98 -48 -214 -48zM490 418q-47 0 -78.5 -34.5t-31.5 -90.5t31.5 -91t78.5 -35q48 0 79.5 35t31.5 91t-31.5 90.5t-79.5 34.5z" />
    <glyph glyph-name="A" unicode="A" horiz-adv-x="686" 
d="M546 0l-53 126h-299l-53 -126h-139l321 736h40l320 -736h-137zM244 244h199l-100 236z" />
    <glyph glyph-name="B" unicode="B" horiz-adv-x="653" 
d="M78 724h244q106 0 170.5 -52.5t64.5 -136.5q0 -96 -61 -139q52 -14 88 -63.5t36 -123.5q0 -92 -66.5 -150.5t-177.5 -58.5h-298v724zM305 424q54 0 86 24.5t32 72.5q0 88 -118 88h-97v-185h97zM371 115q51 0 83 28.5t32 71.5q0 44 -32 69t-83 25h-163v-194h163z" />
    <glyph glyph-name="C" unicode="C" horiz-adv-x="686" 
d="M680 115q-108 -127 -286 -127q-153 0 -254 107.5t-101 267.5t101 267.5t254 107.5q156 0 259 -100l-88 -99q-75 75 -171 75q-97 0 -160 -77.5t-63 -173.5t63 -173.5t160 -77.5q113 0 188 94z" />
    <glyph glyph-name="D" unicode="D" horiz-adv-x="750" 
d="M78 724h280q145 0 249 -100t104 -262t-104 -262t-249 -100h-280v724zM208 607v-489h143q96 0 163 68t67 176t-67.5 176.5t-162.5 68.5h-143z" />
    <glyph glyph-name="E" unicode="E" horiz-adv-x="578" 
d="M78 724h448v-118h-318v-181h296v-118h-296v-189h318v-118h-448v724z" />
    <glyph glyph-name="F" unicode="F" horiz-adv-x="544" 
d="M78 724h438v-118h-308v-181h270v-118h-270v-307h-130v724z" />
    <glyph glyph-name="G" unicode="G" horiz-adv-x="813" 
d="M784 408v-22q0 -20 -2 -52q-11 -147 -116.5 -246.5t-255.5 -99.5q-157 0 -265 109.5t-108 265.5t108 265.5t265 109.5q164 0 274 -118l-95 -89q-75 85 -179 85q-102 0 -172.5 -76.5t-70.5 -176.5t70.5 -176.5t172.5 -76.5q80 0 142 49t88 124l-109 125h253z" />
    <glyph glyph-name="H" unicode="H" horiz-adv-x="753" 
d="M78 724h130v-299h337v299h130v-724h-130v307h-337v-307h-130v724z" />
    <glyph glyph-name="I" unicode="I" horiz-adv-x="286" 
d="M78 724h130v-724h-130v724z" />
    <glyph glyph-name="J" unicode="J" horiz-adv-x="587" 
d="M20 243q5 -104 71 -179.5t177 -75.5q114 0 181 79.5t67 202.5v455h-130v-450q0 -75 -28.5 -120t-89.5 -45q-59 0 -88.5 40.5t-29.5 92.5h-130z" />
    <glyph glyph-name="K" unicode="K" horiz-adv-x="659" 
d="M409 401l263 -401h-154l-196 300h-114v-300h-130v724h130v-399l269 399h152z" />
    <glyph glyph-name="L" unicode="L" horiz-adv-x="506" 
d="M78 724h130v-606h279v-118h-409v724z" />
    <glyph glyph-name="M" unicode="M" horiz-adv-x="888" 
d="M810 724v-724h-130v443l-236 -240l-236 240v-443h-130v724h40l326 -343l326 343h40z" />
    <glyph glyph-name="N" unicode="N" horiz-adv-x="770" 
d="M652 -12l-443 471l-1 -459h-130v736h40l443 -470l1 458h130v-736h-40z" />
    <glyph glyph-name="O" unicode="O" horiz-adv-x="820" 
d="M783 363q0 -156 -108 -265.5t-265 -109.5t-265 109.5t-108 265.5t108 265.5t265 109.5t265 -109.5t108 -265.5zM167 363q0 -102 69.5 -177.5t173.5 -75.5q103 0 173 75.5t70 177.5t-70 177.5t-173 75.5q-104 0 -173.5 -75.5t-69.5 -177.5z" />
    <glyph glyph-name="P" unicode="P" horiz-adv-x="631" 
d="M78 724h273q112 0 182.5 -66t70.5 -176q0 -111 -70.5 -177.5t-182.5 -66.5h-143v-238h-130v724zM335 356q64 0 99.5 35t35.5 91q0 55 -35.5 89.5t-99.5 34.5h-127v-250h127z" />
    <glyph glyph-name="Q" unicode="Q" horiz-adv-x="820" 
d="M783 363q0 -157 -110 -267v-108h-286l1 1q-149 8 -250 116t-101 258q0 156 108 265.5t265 109.5t265 -109.5t108 -265.5zM167 363q0 -102 69.5 -177.5t173.5 -75.5q103 0 173 75.5t70 177.5t-70 177.5t-173 75.5q-104 0 -173.5 -75.5t-69.5 -177.5z" />
    <glyph glyph-name="R" unicode="R" horiz-adv-x="661" 
d="M651 0h-151l-197 301l-95 1v-302h-130v724h280q110 0 179.5 -53t69.5 -156q0 -78 -45.5 -130t-117.5 -72zM208 606v-191h134q61 0 96 25.5t35 74.5q0 91 -131 91h-134z" />
    <glyph glyph-name="S" unicode="S" horiz-adv-x="552" 
d="M371 558q-40 58 -108 58q-30 0 -50.5 -20t-20.5 -48q0 -50 64 -72l61 -22q203 -74 203 -236q0 -104 -73 -167t-186 -63q-93 0 -156 44.5t-88 102.5l103 75q44 -100 152 -100q53 0 85.5 30t32.5 79q0 78 -107 115l-64 23q-155 55 -156 193q-1 73 58 129.5t142 56.5
q133 0 205 -102z" />
    <glyph glyph-name="T" unicode="T" horiz-adv-x="540" 
d="M205 606h-187v118h504v-118h-187v-606h-130v606z" />
    <glyph glyph-name="U" unicode="U" horiz-adv-x="715" 
d="M358 -12q-136 0 -212.5 90.5t-76.5 229.5v417h130v-406q0 -94 40.5 -151.5t118.5 -57.5q77 0 117.5 57.5t40.5 151.5v406h130v-417q0 -139 -76 -229.5t-212 -90.5z" />
    <glyph glyph-name="V" unicode="V" horiz-adv-x="676" 
d="M318 -12l-314 736h137l197 -482l197 482h137l-314 -736h-40z" />
    <glyph glyph-name="W" unicode="W" horiz-adv-x="1048" 
d="M504 736h40l183 -461l175 449h141l-292 -736h-40l-187 478l-187 -478h-40l-292 736h141l175 -449z" />
    <glyph glyph-name="X" unicode="X" horiz-adv-x="660" 
d="M244 381l-224 343h155l155 -243l155 243h155l-224 -343l252 -381h-155l-183 281l-183 -281h-155z" />
    <glyph glyph-name="Y" unicode="Y" horiz-adv-x="656" 
d="M263 231l-255 493h152l168 -345l168 345h152l-255 -493v-231h-130v231z" />
    <glyph glyph-name="Z" unicode="Z" horiz-adv-x="558" 
d="M333 606h-289v118h496l-323 -605l310 -1v-118h-519z" />
    <glyph glyph-name="bracketleft" unicode="[" horiz-adv-x="316" 
d="M72 794h222v-97h-116v-752h116v-97h-222v946z" />
    <glyph glyph-name="backslash" unicode="\" horiz-adv-x="456" 
d="M22 724h126l285 -724h-127z" />
    <glyph glyph-name="bracketright" unicode="]" horiz-adv-x="316" 
d="M244 794v-946h-222v97h116v752h-116v97h222z" />
    <glyph glyph-name="asciicircum" unicode="^" 
d="M61 419l238 305l240 -305v-3h-117l-123 165l-121 -165h-117v3z" />
    <glyph glyph-name="underscore" unicode="_" horiz-adv-x="500" 
d="M0 -40h500v-96h-500v96z" />
    <glyph glyph-name="grave" unicode="`" 
d="M302 584l-88 154h131l77 -154h-120z" />
    <glyph glyph-name="a" unicode="a" horiz-adv-x="624" 
d="M437 49q-61 -61 -157 -61q-104 0 -175.5 73t-71.5 196t71.5 196.5t175.5 73.5q95 0 157 -62v50h124v-515h-124v49zM302 414q-63 0 -103 -42t-40 -115q0 -72 40 -114t103 -42q58 0 98 42t40 114t-40 114.5t-98 42.5z" />
    <glyph glyph-name="b" unicode="b" horiz-adv-x="632" 
d="M190 0h-127v770h127v-305q57 62 161 62q107 0 177.5 -75t70.5 -195t-70.5 -194.5t-177.5 -74.5q-105 0 -161 61v-49zM323 101q64 0 106.5 42t42.5 114q0 73 -42.5 115t-106.5 42q-58 0 -98.5 -42.5t-40.5 -114.5q0 -71 40.5 -113.5t98.5 -42.5z" />
    <glyph glyph-name="c" unicode="c" horiz-adv-x="536" 
d="M160 257q0 -68 39 -109.5t101 -41.5q91 0 151 68l67 -99q-81 -87 -219 -87q-120 0 -193 76.5t-73 192.5t73 192.5t193 76.5q138 0 219 -87l-67 -99q-60 68 -151 68q-62 0 -101 -41.5t-39 -109.5z" />
    <glyph glyph-name="d" unicode="d" horiz-adv-x="632" 
d="M442 0v49q-56 -61 -161 -61q-107 0 -177.5 74.5t-70.5 194.5t70.5 195t177.5 75q104 0 161 -62v305h127v-770h-127zM309 101q58 0 98.5 42.5t40.5 113.5q0 72 -40.5 114.5t-98.5 42.5q-64 0 -106.5 -42t-42.5 -115q0 -72 42.5 -114t106.5 -42z" />
    <glyph glyph-name="e" unicode="e" horiz-adv-x="565" 
d="M309 -12q-125 0 -201 76t-76 192q0 119 73 195t186 76q117 0 178 -68t61 -177q0 -34 -5 -60h-363q8 -57 48.5 -91t102.5 -34q87 0 149 64l63 -92q-81 -81 -216 -81zM291 418q-49 0 -83 -24t-43 -70h235q-1 46 -31.5 70t-77.5 24z" />
    <glyph glyph-name="f" unicode="f" horiz-adv-x="377" 
d="M266 675q-47 0 -47 -70v-90h133v-102h-133v-413h-127v413h-63v102h63v90q0 79 46.5 128t127.5 49q79 0 123 -46t44 -117h-121q0 56 -46 56z" />
    <glyph glyph-name="g" unicode="g" horiz-adv-x="607" 
d="M34 279q0 -110 68 -178t168 -68q101 0 155 56v-46q0 -56 -34 -93.5t-96 -37.5q-101 0 -125 88h-124q9 -83 75 -142t174 -59q116 0 182.5 69t66.5 165v482h-121v-45q-56 56 -153 56q-100 0 -168 -68t-68 -179zM155 279q0 63 39 101t99 38q54 0 94 -38.5t40 -100.5
q0 -61 -40 -99t-94 -38q-60 0 -99 37t-39 100z" />
    <glyph glyph-name="h" unicode="h" horiz-adv-x="607" 
d="M63 770h127v-308q46 65 156 65q96 0 149.5 -61.5t53.5 -162.5v-303h-127v289q0 125 -114 125q-53 0 -85.5 -32.5t-32.5 -92.5v-289h-127v770z" />
    <glyph glyph-name="i" unicode="i" horiz-adv-x="253" 
d="M126 626q-32 0 -55 22.5t-23 54.5t23 55t55 23t55 -23t22 -55t-23.5 -54.5t-53.5 -22.5zM63 515h127v-515h-127v515z" />
    <glyph glyph-name="j" unicode="j" horiz-adv-x="253" 
d="M126 626q-32 0 -55 22.5t-23 54.5t23 55t55 23t54.5 -23t22.5 -55t-22.5 -54.5t-54.5 -22.5zM63 -220v735h127v-735h-127z" />
    <glyph glyph-name="k" unicode="k" horiz-adv-x="538" 
d="M335 280l221 -280h-154l-212 265v-265h-127v770h127v-492l171 237h153z" />
    <glyph glyph-name="l" unicode="l" horiz-adv-x="253" 
d="M63 770h127v-770h-127v770z" />
    <glyph glyph-name="m" unicode="m" horiz-adv-x="950" 
d="M512 444q52 83 185 83q95 0 145 -61t50 -163v-303h-127v289q0 125 -110 125q-50 0 -82 -33t-32 -92v-289h-127v289q0 63 -25 94t-81 31q-53 0 -85.5 -32.5t-32.5 -92.5v-289h-127v515h127v-53q46 65 156 65q60 0 103 -22.5t63 -60.5z" />
    <glyph glyph-name="n" unicode="n" horiz-adv-x="607" 
d="M63 515h127v-53q46 65 156 65q96 0 149.5 -61.5t53.5 -162.5v-303h-127v289q0 125 -114 125q-53 0 -85.5 -32.5t-32.5 -92.5v-289h-127v515z" />
    <glyph glyph-name="o" unicode="o" horiz-adv-x="610" 
d="M305 -14q-125 0 -199 79.5t-74 191.5q0 111 74 190.5t199 79.5t199 -79.5t74 -190.5q0 -112 -74 -191.5t-199 -79.5zM305 414q-63 0 -104.5 -43.5t-41.5 -113.5q0 -71 41.5 -114.5t104.5 -43.5t104.5 43.5t41.5 114.5q0 70 -41.5 113.5t-104.5 43.5z" />
    <glyph glyph-name="p" unicode="p" horiz-adv-x="632" 
d="M190 515v-49q56 61 161 61q107 0 177.5 -74.5t70.5 -194.5t-70.5 -195t-177.5 -75q-104 0 -161 62v-270h-127v735h127zM323 414q-58 0 -98.5 -42.5t-40.5 -113.5q0 -72 40.5 -114.5t98.5 -42.5q64 0 106.5 42t42.5 115q0 72 -42.5 114t-106.5 42z" />
    <glyph glyph-name="q" unicode="q" horiz-adv-x="632" 
d="M442 515h127v-734h-127v269q-57 -62 -161 -62q-107 0 -177.5 75t-70.5 195t70.5 194.5t177.5 74.5q105 0 161 -61v49zM309 414q-64 0 -106.5 -42t-42.5 -114q0 -73 42.5 -115t106.5 -42q58 0 98.5 42.5t40.5 114.5q0 71 -40.5 113.5t-98.5 42.5z" />
    <glyph glyph-name="r" unicode="r" horiz-adv-x="453" 
d="M63 515h127v-49q33 61 115 61q63 0 100 -46t33 -128h-124q0 28 -16 45t-43 17q-65 0 -65 -107v-308h-127v515z" />
    <glyph glyph-name="s" unicode="s" horiz-adv-x="440" 
d="M216 -12q-72 0 -122.5 28t-75.5 71l83 83q34 -71 115 -71q29 0 49 15.5t20 41.5q0 42 -65 64l-46 15q-122 40 -122 148q0 59 47 101.5t113 42.5q60 0 104.5 -24t66.5 -60l-83 -72q-33 48 -83 48q-21 0 -33.5 -10.5t-12.5 -25.5q0 -31 47 -47l44 -15q146 -50 146 -165
q0 -72 -54.5 -120t-137.5 -48z" />
    <glyph glyph-name="t" unicode="t" horiz-adv-x="383" 
d="M240 667v-152h129v-102h-129v-413h-127v413h-109l206 254h30z" />
    <glyph glyph-name="u" unicode="u" horiz-adv-x="580" 
d="M290 -12q-109 0 -171 66.5t-62 157.5v303h127v-289q0 -53 26.5 -89t79.5 -36t79.5 36t26.5 89v289h127v-303q0 -91 -62 -157.5t-171 -66.5z" />
    <glyph glyph-name="v" unicode="v" horiz-adv-x="543" 
d="M286 0l259 515h-138l-135 -281l-135 281h-138l257 -515h30z" />
    <glyph glyph-name="w" unicode="w" horiz-adv-x="842" 
d="M436 515l139 -277l131 277h138l-245 -515h-30l-148 298l-148 -298h-30l-245 515h138l131 -277l139 277h30z" />
    <glyph glyph-name="x" unicode="x" horiz-adv-x="532" 
d="M183 266l-171 249h141l113 -169l113 169h141l-171 -249l186 -266h-143l-126 185l-126 -185h-143z" />
    <glyph glyph-name="y" unicode="y" horiz-adv-x="546" 
d="M404 515h135l-263 -735h-127l75 216l-222 519h136l143 -356z" />
    <glyph glyph-name="z" unicode="z" horiz-adv-x="473" 
d="M213 102h238v-102h-436l234 413h-215v102h416z" />
    <glyph glyph-name="braceleft" unicode="{" horiz-adv-x="320" 
d="M251 -165q-77 0 -120.5 41t-43.5 119v226l-70 100l70 100v226q0 78 43.5 119t120.5 41h48v-98h-33q-36 0 -54.5 -17t-18.5 -59v-239l-58 -73l58 -73v-239q0 -42 18.5 -59t54.5 -17h33v-98h-48z" />
    <glyph glyph-name="bar" unicode="|" horiz-adv-x="259" 
d="M72 770h115v-879h-115v879z" />
    <glyph glyph-name="braceright" unicode="}" horiz-adv-x="320" 
d="M69 -165h-48v98h33q36 0 54.5 17t18.5 59v239l58 73l-58 73v239q0 42 -18.5 59t-54.5 17h-33v98h48q77 0 120.5 -41t43.5 -119v-226l70 -100l-70 -100v-226q0 -78 -43.5 -119t-120.5 -41z" />
    <glyph glyph-name="asciitilde" unicode="~" 
d="M417 222q-44 0 -121 24t-108 24q-56 0 -124 -42h-3v110q61 41 123 41q45 0 121.5 -23.5t107.5 -23.5q56 0 124 42h3v-110q-60 -42 -123 -42z" />
    <glyph glyph-name="uni00A0" unicode="&#xa0;" horiz-adv-x="225" 
 />
    <glyph glyph-name="exclamdown" unicode="&#xa1;" horiz-adv-x="267" 
d="M222 439q1 -36 -25.5 -62.5t-62.5 -26.5t-62.5 26.5t-26.5 62.5q0 35 26.5 61.5t62.5 26.5q35 0 61 -26.5t27 -61.5zM69 -209v494h130v-494h-130z" />
    <glyph glyph-name="cent" unicode="&#xa2;" 
d="M327 189q91 0 151 68l67 -99q-63 -67 -161 -82v-96h-122v97q-93 20 -147.5 92t-54.5 171t54.5 171t147.5 92v97h122v-96q98 -15 161 -82l-67 -99q-60 68 -151 68q-62 0 -101 -41.5t-39 -109.5t39 -109.5t101 -41.5z" />
    <glyph glyph-name="sterling" unicode="&#xa3;" 
d="M430 542q-34 31 -77 31q-42 0 -70 -28t-28 -74q0 -39 17 -87h201v-110h-169q1 -9 1 -35q0 -31 -10.5 -67.5t-22.5 -57.5h254v-114h-440q87 182 87 270h-92v109h58q-14 49 -14 100q0 94 62.5 154.5t165.5 60.5q85 0 147 -53z" />
    <glyph glyph-name="currency" unicode="&#xa4;" 
d="M403 125q-51 -27 -103 -27q-54 0 -103 27l-68 -68l-74 73l67 67q-29 51 -29 105q0 53 29 104l-67 68l74 73l68 -68q52 27 103 27q49 0 103 -27l68 68l74 -73l-68 -68q30 -53 30 -104q0 -52 -30 -105l68 -67l-74 -73zM300 201q42 0 70 29t28 72t-28 72t-70 29t-69.5 -28.5
t-27.5 -72.5t27.5 -72.5t69.5 -28.5z" />
    <glyph glyph-name="yen" unicode="&#xa5;" 
d="M600 724v-3l-160 -353h70v-107h-118l-27 -60h145v-107h-145v-94h-130v94h-144v107h144l-27 60h-117v107h69l-160 353v3h152l148 -368l148 368h152z" />
    <glyph glyph-name="brokenbar" unicode="&#xa6;" horiz-adv-x="252" 
d="M74 710h104v-361h-104v361zM74 196h104v-362h-104v362z" />
    <glyph glyph-name="section" unicode="&#xa7;" horiz-adv-x="545" 
d="M405 145q84 -59 85 -140q1 -72 -65 -114.5t-161 -42.5q-66 0 -128 23.5t-91 58.5l84 87q19 -25 65 -42t83 -17q32 0 57.5 17t25.5 40q0 37 -69 64l-57 22q-37 14 -56 22.5t-49.5 26.5t-46.5 35.5t-28.5 46t-12.5 62.5q0 46 30 85.5t75 59.5q-84 59 -85 139
q-1 73 58 115.5t153 42.5q66 0 121 -23.5t83 -58.5l-84 -88q-20 26 -58.5 42.5t-74.5 16.5q-31 0 -49.5 -16t-18.5 -41q0 -36 69 -63l57 -22q36 -14 56 -22.5t50 -26.5t46 -36t28.5 -46t12.5 -62q0 -47 -30 -86.5t-75 -58.5zM171 297q0 -10 3.5 -19.5t7.5 -16.5t13.5 -14
t16 -11.5t20 -11t19.5 -9t22 -8.5t21 -8q28 5 57 31.5t29 56.5q0 10 -3.5 19.5t-7.5 16.5t-14 14t-16 11.5t-20 10.5t-19.5 8.5t-22 8.5t-20.5 8q-28 -5 -57 -31t-29 -56z" />
    <glyph glyph-name="dieresis" unicode="&#xa8;" 
d="M188 580q-32 0 -55 22.5t-23 54.5t23 55t55 23t55 -23t22 -55t-23.5 -54.5t-53.5 -22.5zM416 580q-32 0 -55 22.5t-23 54.5t23 55t55 23t55 -23t22 -55t-23.5 -54.5t-53.5 -22.5z" />
    <glyph glyph-name="copyright" unicode="&#xa9;" horiz-adv-x="894" 
d="M448 -40q-171 0 -291.5 120t-120.5 292q0 171 120.5 290.5t291.5 119.5q170 0 290 -119.5t120 -290.5t-120 -291.5t-290 -120.5zM448 53q132 0 222.5 92.5t90.5 226.5q0 133 -90.5 225t-222.5 92q-133 0 -224 -92t-91 -225q0 -134 91 -226.5t224 -92.5zM620 229
q-61 -66 -169 -66q-96 0 -154 61t-58 149t58 149t154 61q97 0 159 -54l-42 -88q-46 50 -111 50q-53 0 -84.5 -31.5t-31.5 -86.5t31.5 -86t84.5 -31q66 0 110 48z" />
    <glyph glyph-name="ordfeminine" unicode="&#xaa;" horiz-adv-x="336" 
d="M48 737q37 44 108 44q62 0 96.5 -35.5t34.5 -96.5v-154h-80v23q-30 -30 -77 -30q-43 0 -70 25t-27 63q0 37 31.5 61.5t74.5 24.5q42 0 67 -17v9q0 56 -56 56q-29 0 -48 -19zM155 547q18 0 29 8.5t11 21.5q0 31 -40 31q-18 0 -29 -8.5t-11 -22.5q0 -13 11.5 -21.5
t28.5 -8.5z" />
    <glyph glyph-name="guillemotleft" unicode="&#xab;" horiz-adv-x="608" 
d="M151 301l166 -214h-120l-170 214l170 214h120zM414 301l166 -214h-120l-170 214l170 214h120z" />
    <glyph glyph-name="logicalnot" unicode="&#xac;" 
d="M418 290h-363v102h479l-1 -251h-115v149z" />
    <glyph glyph-name="uni00AD" unicode="&#xad;" horiz-adv-x="406" 
d="M57 354h292v-102h-292v102z" />
    <glyph glyph-name="registered" unicode="&#xae;" horiz-adv-x="498" 
d="M249 357q-92 0 -153 60.5t-61 151.5t61 151.5t153 60.5t153 -60.5t61 -151.5t-61 -151.5t-153 -60.5zM249 415q67 0 109.5 43.5t42.5 110.5q0 66 -43 109.5t-109 43.5t-109 -43.5t-43 -109.5q0 -67 42.5 -110.5t109.5 -43.5zM168 670h94q32 0 53.5 -18t21.5 -48
q0 -37 -31 -57l44 -76v-3h-63l-38 73h-25v-73h-56v202zM257 586q9 0 16.5 5t7.5 13q0 9 -7.5 14.5t-16.5 5.5h-33v-38h33z" />
    <glyph glyph-name="macron" unicode="&#xaf;" 
d="M104 711h346v-102h-346v102z" />
    <glyph glyph-name="degree" unicode="&#xb0;" horiz-adv-x="381" 
d="M190 464q-65 0 -113 47.5t-48 111.5t48 111.5t113 47.5q66 0 114 -47t48 -112t-48 -112t-114 -47zM190 553q31 0 50 20t19 50t-19 50t-50 20t-50 -20t-19 -50t19 -50t50 -20z" />
    <glyph glyph-name="plusminus" unicode="&#xb1;" 
d="M243 363h-183v102h183v166h112v-166h184v-102h-184v-144h-112v144zM60 153h479v-102h-479v102z" />
    <glyph glyph-name="acute" unicode="&#xb4;" 
d="M307 584h-120l77 154h131z" />
    <glyph glyph-name="paragraph" unicode="&#xb6;" horiz-adv-x="611" 
d="M569 680v-88h-65v-758h-88v758h-81v-758h-88v453h-37q-81 0 -131.5 52.5t-50.5 139.5q0 88 51 144t131 57h359z" />
    <glyph glyph-name="periodcentered" unicode="&#xb7;" horiz-adv-x="267" 
d="M134 214q-36 0 -62.5 26.5t-26.5 61.5q0 36 26.5 62.5t62.5 26.5t62.5 -26.5t25.5 -62.5q-1 -35 -27 -61.5t-61 -26.5z" />
    <glyph glyph-name="cedilla" unicode="&#xb8;" 
d="M280 -31q39 0 61 -20t22 -46q0 -34 -29.5 -58t-70.5 -24q-47 0 -95 10l11 64q37 -13 68 -13q25 0 25 21q0 32 -91 33l43 127h86l-32 -95z" />
    <glyph glyph-name="ordmasculine" unicode="&#xba;" horiz-adv-x="374" 
d="M186 488q-71 0 -112.5 45t-41.5 102t41.5 102t112.5 45t113 -45t42 -102t-42 -102t-113 -45zM187 562q30 0 50 20t20 53t-20 53t-50 20t-50 -20t-20 -53t20 -53t50 -20z" />
    <glyph glyph-name="guillemotright" unicode="&#xbb;" horiz-adv-x="608" 
d="M194 301l-166 214h120l170 -214l-170 -214h-120zM457 301l-166 214h120l170 -214l-170 -214h-120z" />
    <glyph glyph-name="onequarter" unicode="&#xbc;" horiz-adv-x="685" 
d="M25 553l172 178v-424h-89v246h-83zM474 724h96l-375 -724h-97zM593 422v-285h54v-77h-54v-60h-88v60h-208zM514 118v111l-88 -111h88z" />
    <glyph glyph-name="onehalf" unicode="&#xbd;" horiz-adv-x="746" 
d="M108 307v246h-83l172 178v-424h-89zM474 724h96l-375 -724h-97zM622 129l-43 -51h120v-78h-289l145 178q3 3 15 18t17.5 22t13.5 19.5t11.5 22.5t3.5 19q0 23 -16.5 36.5t-44.5 13.5q-47 0 -74 -42l-62 48q20 33 57.5 53.5t78.5 20.5q68 0 109 -34t41 -91q0 -9 -2 -18.5
t-4.5 -18t-7 -18.5t-8.5 -17t-10.5 -17t-10.5 -15.5t-11.5 -15.5t-10.5 -13.5t-10 -12t-8 -9.5z" />
    <glyph glyph-name="threequarters" unicode="&#xbe;" horiz-adv-x="792" 
d="M564 724h96l-375 -724h-97zM80 419q40 -40 94 -40q36 0 58 18.5t22 47.5q0 30 -24 49t-62 19q-42 0 -68 -4l85 121h-111v77h258l-99 -133q51 -11 80.5 -43.5t29.5 -85.5q0 -62 -49 -104t-120 -42q-88 0 -146 58zM702 422v-285h54v-77h-54v-60h-88v60h-208zM623 118v111
l-88 -111h88z" />
    <glyph glyph-name="questiondown" unicode="&#xbf;" horiz-adv-x="454" 
d="M246 527q36 0 62.5 -26.5t26.5 -61.5q0 -36 -26.5 -62.5t-62.5 -26.5t-62.5 26.5t-25.5 62.5q1 35 27 61.5t61 26.5zM430 -99q-55 -121 -181 -121q-88 0 -150 50t-62 130q0 93 98 216l88 112l92 -71l-84 -107q-64 -82 -64 -138q0 -30 23.5 -48.5t58.5 -18.5q33 0 58 19.5
t37 52.5z" />
    <glyph glyph-name="Agrave" unicode="&#xc0;" horiz-adv-x="686" 
d="M402 770h-120l-88 154h131zM546 0l-53 126h-299l-53 -126h-139l321 736h40l320 -736h-137zM244 244h199l-100 236z" />
    <glyph glyph-name="Aacute" unicode="&#xc1;" horiz-adv-x="686" 
d="M485 936l-88 -154h-120l77 154h131zM546 0l-53 126h-299l-53 -126h-139l321 736h40l320 -736h-137zM244 244h199l-100 236z" />
    <glyph glyph-name="Acircumflex" unicode="&#xc2;" horiz-adv-x="686" 
d="M344 830l-51 -49h-131l182 162l182 -162h-131zM546 0l-53 126h-299l-53 -126h-139l321 736h40l320 -736h-137zM244 244h199l-100 236z" />
    <glyph glyph-name="Atilde" unicode="&#xc3;" horiz-adv-x="686" 
d="M286 828q-33 0 -59 -56l-65 44q30 58 55.5 81.5t59.5 23.5q31 0 71.5 -29.5t54.5 -29.5q32 0 59 57l65 -53q-30 -53 -55.5 -74.5t-59.5 -21.5q-31 0 -71.5 29t-54.5 29zM546 0l-53 126h-299l-53 -126h-139l321 736h40l320 -736h-137zM244 244h199l-100 236z" />
    <glyph glyph-name="Adieresis" unicode="&#xc4;" horiz-adv-x="686" 
d="M230 770q-32 0 -55 22.5t-23 54.5t23 55t55 23t55 -23t22 -55t-23.5 -54.5t-53.5 -22.5zM458 770q-32 0 -55 22.5t-23 54.5t23 55t55 23t55 -23t22 -55t-23.5 -54.5t-53.5 -22.5zM546 0l-53 126h-299l-53 -126h-139l321 736h40l320 -736h-137zM244 244h199l-100 236z" />
    <glyph glyph-name="Aring" unicode="&#xc5;" horiz-adv-x="693" 
d="M550 0l-57 125h-291l-57 -125h-139l309 666q-36 11 -59.5 39.5t-23.5 65.5q0 45 34 77t81 32q46 0 80 -32t34 -77q0 -37 -23.5 -65.5t-58.5 -38.5l308 -667h-137zM301 771q0 -19 13.5 -31.5t32.5 -12.5t32.5 12.5t13.5 31.5t-13.5 31.5t-32.5 12.5t-32.5 -12.5
t-13.5 -31.5zM256 243h182l-91 199z" />
    <glyph glyph-name="AE" unicode="&#xc6;" horiz-adv-x="925" 
d="M882 606h-319v-201h271v-118h-271v-169h319v-118h-449v119h-243l-71 -119h-148v3l440 721h471v-118zM258 234h175v293z" />
    <glyph glyph-name="Ccedilla" unicode="&#xc7;" horiz-adv-x="686" 
d="M680 115q-107 -125 -280 -127l-7 -20l2 1q39 0 61 -20t22 -46q0 -34 -29.5 -58t-70.5 -24q-47 0 -95 10l11 64q37 -13 68 -13q25 0 25 21q0 32 -91 33l20 60q-123 26 -200 127.5t-77 239.5q0 160 101 267.5t254 107.5q156 0 259 -100l-88 -99q-75 75 -171 75
q-97 0 -160 -77.5t-63 -173.5t63 -173.5t160 -77.5q113 0 188 94z" />
    <glyph glyph-name="Egrave" unicode="&#xc8;" horiz-adv-x="578" 
d="M266 770l-88 154h131l77 -154h-120zM78 724h448v-118h-318v-181h296v-118h-296v-189h318v-118h-448v724z" />
    <glyph glyph-name="Eacute" unicode="&#xc9;" horiz-adv-x="578" 
d="M356 782h-120l77 154h131zM78 724h448v-118h-318v-181h296v-118h-296v-189h318v-118h-448v724z" />
    <glyph glyph-name="Ecircumflex" unicode="&#xca;" horiz-adv-x="578" 
d="M299 830l-51 -49h-131l182 162l182 -162h-131zM526 606h-318v-181h296v-118h-296v-189h318v-118h-448v724h448v-118z" />
    <glyph glyph-name="Edieresis" unicode="&#xcb;" horiz-adv-x="578" 
d="M192 770q-32 0 -55 22.5t-23 54.5t23 55t55 23t55 -23t22 -55t-23.5 -54.5t-53.5 -22.5zM420 770q-32 0 -55 22.5t-23 54.5t23 55t55 23t55 -23t22 -55t-23.5 -54.5t-53.5 -22.5zM78 724h448v-118h-318v-181h296v-118h-296v-189h318v-118h-448v724z" />
    <glyph glyph-name="Igrave" unicode="&#xcc;" horiz-adv-x="286" 
d="M88 770l-88 154h131l77 -154h-120zM78 724h130v-724h-130v724z" />
    <glyph glyph-name="Iacute" unicode="&#xcd;" horiz-adv-x="286" 
d="M201 782h-120l77 154h131zM78 724h130v-724h-130v724z" />
    <glyph glyph-name="Icircumflex" unicode="&#xce;" horiz-adv-x="286" 
d="M143 830l-51 -49h-131l182 162l182 -162h-131zM78 0v724h130v-724h-130z" />
    <glyph glyph-name="Idieresis" unicode="&#xcf;" horiz-adv-x="286" 
d="M35 770q-32 0 -55 22.5t-23 54.5t23 55t55 23t55 -23t22 -55t-23.5 -54.5t-53.5 -22.5zM263 770q-32 0 -55 22.5t-23 54.5t23 55t55 23t55 -23t22 -55t-23.5 -54.5t-53.5 -22.5zM78 724h130v-724h-130v724z" />
    <glyph glyph-name="Eth" unicode="&#xd0;" horiz-adv-x="758" 
d="M366 724q145 0 249 -100t104 -262t-104 -262t-249 -100h-280v288h-60v110h60v326h280zM359 118q96 0 163 68t67 176t-67 176.5t-163 68.5h-143v-209h174v-110h-174v-170h143z" />
    <glyph glyph-name="Ntilde" unicode="&#xd1;" horiz-adv-x="770" 
d="M447 770q-31 0 -71.5 29t-54.5 29q-33 0 -59 -56l-65 44q30 58 55.5 81.5t59.5 23.5q31 0 71.5 -29.5t54.5 -29.5q32 0 59 57l65 -53q-30 -53 -55.5 -74.5t-59.5 -21.5zM652 -12l-443 471l-1 -459h-130v736h40l443 -470l1 458h130v-736h-40z" />
    <glyph glyph-name="Ograve" unicode="&#xd2;" horiz-adv-x="820" 
d="M348 770l-88 154h131l77 -154h-120zM783 363q0 -156 -108 -265.5t-265 -109.5t-265 109.5t-108 265.5t108 265.5t265 109.5t265 -109.5t108 -265.5zM167 363q0 -102 69.5 -177.5t173.5 -75.5q103 0 173 75.5t70 177.5t-70 177.5t-173 75.5q-104 0 -173.5 -75.5
t-69.5 -177.5z" />
    <glyph glyph-name="Oacute" unicode="&#xd3;" horiz-adv-x="820" 
d="M460 782h-120l77 154h131zM783 363q0 -156 -108 -265.5t-265 -109.5t-265 109.5t-108 265.5t108 265.5t265 109.5t265 -109.5t108 -265.5zM167 363q0 -102 69.5 -177.5t173.5 -75.5q103 0 173 75.5t70 177.5t-70 177.5t-173 75.5q-104 0 -173.5 -75.5t-69.5 -177.5z" />
    <glyph glyph-name="Ocircumflex" unicode="&#xd4;" horiz-adv-x="820" 
d="M410 830l-51 -49h-131l182 162l182 -162h-131zM410 738q157 0 265 -109.5t108 -265.5t-108 -265.5t-265 -109.5t-265 109.5t-108 265.5t108 265.5t265 109.5zM410 110q103 0 173 75.5t70 177.5t-70 177.5t-173 75.5q-104 0 -173.5 -75.5t-69.5 -177.5t69.5 -177.5
t173.5 -75.5z" />
    <glyph glyph-name="Otilde" unicode="&#xd5;" horiz-adv-x="820" 
d="M478 770q-31 0 -71.5 29t-54.5 29q-33 0 -59 -56l-65 44q30 58 55.5 81.5t59.5 23.5q31 0 71.5 -29.5t54.5 -29.5q32 0 59 57l65 -53q-30 -53 -55.5 -74.5t-59.5 -21.5zM783 363q0 -156 -108 -265.5t-265 -109.5t-265 109.5t-108 265.5t108 265.5t265 109.5t265 -109.5
t108 -265.5zM167 363q0 -102 69.5 -177.5t173.5 -75.5q103 0 173 75.5t70 177.5t-70 177.5t-173 75.5q-104 0 -173.5 -75.5t-69.5 -177.5z" />
    <glyph glyph-name="Odieresis" unicode="&#xd6;" horiz-adv-x="820" 
d="M296 770q-32 0 -55 22.5t-23 54.5t23 55t55 23t55 -23t22 -55t-23.5 -54.5t-53.5 -22.5zM524 770q-32 0 -55 22.5t-23 54.5t23 55t55 23t55 -23t22 -55t-23.5 -54.5t-53.5 -22.5zM783 363q0 -156 -108 -265.5t-265 -109.5t-265 109.5t-108 265.5t108 265.5t265 109.5
t265 -109.5t108 -265.5zM167 363q0 -102 69.5 -177.5t173.5 -75.5q103 0 173 75.5t70 177.5t-70 177.5t-173 75.5q-104 0 -173.5 -75.5t-69.5 -177.5z" />
    <glyph glyph-name="multiply" unicode="&#xd7;" 
d="M84 167l137 136l-137 136l79 80l137 -138l136 138l80 -80l-137 -136l137 -136l-80 -80l-136 137l-137 -137z" />
    <glyph glyph-name="Oslash" unicode="&#xd8;" horiz-adv-x="820" 
d="M638 661q68 -53 106.5 -131t38.5 -167q0 -156 -108 -265.5t-265 -109.5q-63 0 -121 20l-21 -39h-145v3l53 98q-65 52 -102 129t-37 164q0 156 108 265.5t265 109.5q62 0 116 -18l27 50h144zM167 363q0 -104 71 -178l228 424q-25 7 -56 7q-104 0 -173.5 -75.5
t-69.5 -177.5zM410 110q103 0 173 75.5t70 177.5q0 109 -76 183l-229 -428q30 -8 62 -8z" />
    <glyph glyph-name="Ugrave" unicode="&#xd9;" horiz-adv-x="715" 
d="M312 770l-88 154h131l77 -154h-120zM358 -12q-136 0 -212.5 90.5t-76.5 229.5v417h130v-406q0 -94 40.5 -151.5t118.5 -57.5q77 0 117.5 57.5t40.5 151.5v406h130v-417q0 -139 -76 -229.5t-212 -90.5z" />
    <glyph glyph-name="Uacute" unicode="&#xda;" horiz-adv-x="715" 
d="M417 782h-120l77 154h131zM358 -12q-136 0 -212.5 90.5t-76.5 229.5v417h130v-406q0 -94 40.5 -151.5t118.5 -57.5q77 0 117.5 57.5t40.5 151.5v406h130v-417q0 -139 -76 -229.5t-212 -90.5z" />
    <glyph glyph-name="Ucircumflex" unicode="&#xdb;" horiz-adv-x="715" 
d="M355 830l-51 -49h-131l182 162l182 -162h-131zM516 725h130v-417q0 -139 -76 -229.5t-212 -90.5t-212.5 90.5t-76.5 229.5v417h130v-406q0 -94 40.5 -151.5t118.5 -57.5q77 0 117.5 57.5t40.5 151.5v406z" />
    <glyph glyph-name="Udieresis" unicode="&#xdc;" horiz-adv-x="715" 
d="M241 770q-32 0 -55 22.5t-23 54.5t23 55t55 23t55 -23t22 -55t-23.5 -54.5t-53.5 -22.5zM469 770q-32 0 -55 22.5t-23 54.5t23 55t55 23t55 -23t22 -55t-23.5 -54.5t-53.5 -22.5zM358 -12q-136 0 -212.5 90.5t-76.5 229.5v417h130v-406q0 -94 40.5 -151.5t118.5 -57.5
q77 0 117.5 57.5t40.5 151.5v406h130v-417q0 -139 -76 -229.5t-212 -90.5z" />
    <glyph glyph-name="Yacute" unicode="&#xdd;" horiz-adv-x="656" 
d="M381 782h-120l77 154h131zM263 231l-255 493h152l168 -345l168 345h152l-255 -493v-231h-130v231z" />
    <glyph glyph-name="Thorn" unicode="&#xde;" horiz-adv-x="608" 
d="M78 724h130v-166h126q101 0 172 -55.5t71 -157.5q0 -103 -71 -158t-172 -55h-126v-132h-130v724zM208 444v-198h109q50 0 88 24.5t38 74.5t-38 74.5t-88 24.5h-109z" />
    <glyph glyph-name="germandbls" unicode="&#xdf;" horiz-adv-x="592" 
d="M400 284q76 -19 123.5 -76t46.5 -145q-1 -110 -72.5 -178.5t-180.5 -68.5q-61 0 -114 20l45 104q30 -11 68 -11q58 0 92.5 40t34.5 94q0 56 -36.5 93t-99.5 37h-67l105 220h-155v-413h-127v770h127v-255h325z" />
    <glyph glyph-name="agrave" unicode="&#xe0;" horiz-adv-x="624" 
d="M257 582l-88 154h131l77 -154h-120zM437 49q-61 -61 -157 -61q-104 0 -175.5 73t-71.5 196t71.5 196.5t175.5 73.5q95 0 157 -62v50h124v-515h-124v49zM302 414q-63 0 -103 -42t-40 -115q0 -72 40 -114t103 -42q58 0 98 42t40 114t-40 114.5t-98 42.5z" />
    <glyph glyph-name="aacute" unicode="&#xe1;" horiz-adv-x="624" 
d="M367 582h-120l77 154h131zM437 49q-61 -61 -157 -61q-104 0 -175.5 73t-71.5 196t71.5 196.5t175.5 73.5q95 0 157 -62v50h124v-515h-124v49zM302 414q-63 0 -103 -42t-40 -115q0 -72 40 -114t103 -42q58 0 98 42t40 114t-40 114.5t-98 42.5z" />
    <glyph glyph-name="acircumflex" unicode="&#xe2;" horiz-adv-x="624" 
d="M311 633l-51 -49h-131l182 162l182 -162h-131zM437 515h124v-515h-124v49q-61 -61 -157 -61q-104 0 -175.5 73t-71.5 196t71.5 196.5t175.5 73.5q95 0 157 -62v50zM302 101q58 0 98 42t40 114t-40 114.5t-98 42.5q-63 0 -103 -42t-40 -115q0 -72 40 -114t103 -42z" />
    <glyph glyph-name="atilde" unicode="&#xe3;" horiz-adv-x="624" 
d="M376 582q-31 0 -71.5 29t-54.5 29q-33 0 -59 -56l-65 44q30 58 55.5 81.5t59.5 23.5q31 0 71.5 -29.5t54.5 -29.5q32 0 59 57l65 -53q-30 -53 -55.5 -74.5t-59.5 -21.5zM437 49q-61 -61 -157 -61q-104 0 -175.5 73t-71.5 196t71.5 196.5t175.5 73.5q95 0 157 -62v50h124
v-515h-124v49zM302 414q-63 0 -103 -42t-40 -115q0 -72 40 -114t103 -42q58 0 98 42t40 114t-40 114.5t-98 42.5z" />
    <glyph glyph-name="adieresis" unicode="&#xe4;" horiz-adv-x="624" 
d="M197 581q-32 0 -55 22.5t-23 54.5t23 55t55 23t55 -23t22 -55t-23.5 -54.5t-53.5 -22.5zM425 581q-32 0 -55 22.5t-23 54.5t23 55t55 23t55 -23t22 -55t-23.5 -54.5t-53.5 -22.5zM437 49q-61 -61 -157 -61q-104 0 -175.5 73t-71.5 196t71.5 196.5t175.5 73.5
q95 0 157 -62v50h124v-515h-124v49zM302 414q-63 0 -103 -42t-40 -115q0 -72 40 -114t103 -42q58 0 98 42t40 114t-40 114.5t-98 42.5z" />
    <glyph glyph-name="aring" unicode="&#xe5;" horiz-adv-x="624" 
d="M311 564q-47 0 -81 32t-34 77t34 77t81 32q46 0 80 -32t34 -77t-34 -77t-80 -32zM311 629q19 0 32.5 12.5t13.5 31.5t-13.5 31.5t-32.5 12.5t-32.5 -12.5t-13.5 -31.5t13.5 -31.5t32.5 -12.5zM437 49q-61 -61 -157 -61q-104 0 -175.5 73t-71.5 196t71.5 196.5t175.5 73.5
q95 0 157 -62v50h124v-515h-124v49zM302 414q-63 0 -103 -42t-40 -115q0 -72 40 -114t103 -42q58 0 98 42t40 114t-40 114.5t-98 42.5z" />
    <glyph glyph-name="ae" unicode="&#xe6;" horiz-adv-x="886" 
d="M635 -12q-132 0 -203 74q-85 -74 -209 -74q-86 0 -141 45t-55 115q0 81 56.5 125.5t167.5 44.5h109q-13 96 -116 96q-80 0 -142 -57l-51 98q91 72 198 72q122 0 179 -77q71 77 188 77q104 0 168.5 -70.5t64.5 -174.5q0 -31 -7 -68h-357q22 -117 150 -117q42 0 82 20
t64 47l68 -93q-37 -39 -94 -61t-120 -22zM723 318q-5 48 -33.5 74.5t-73.5 26.5q-102 0 -128 -101h235zM377 155q-9 23 -14 59h-100q-111 0 -111 -59q0 -24 23.5 -41t63.5 -17q76 0 138 58z" />
    <glyph glyph-name="ccedilla" unicode="&#xe7;" horiz-adv-x="536" 
d="M300 106q91 0 151 68l67 -99q-70 -76 -187 -86l-7 -21l2 1q39 0 61 -20t22 -46q0 -34 -29.5 -58t-70.5 -24q-47 0 -95 10l11 64q37 -13 68 -13q25 0 25 21q0 32 -91 33l19 56q-98 17 -155.5 90t-57.5 175q0 116 73 192.5t193 76.5q138 0 219 -87l-67 -99q-60 68 -151 68
q-62 0 -101 -41.5t-39 -109.5t39 -109.5t101 -41.5z" />
    <glyph glyph-name="egrave" unicode="&#xe8;" horiz-adv-x="565" 
d="M256 582l-88 154h131l77 -154h-120zM309 -12q-125 0 -201 76t-76 192q0 119 73 195t186 76q117 0 178 -68t61 -177q0 -34 -5 -60h-363q8 -57 48.5 -91t102.5 -34q87 0 149 64l63 -92q-81 -81 -216 -81zM291 418q-49 0 -83 -24t-43 -70h235q-1 46 -31.5 70t-77.5 24z" />
    <glyph glyph-name="eacute" unicode="&#xe9;" horiz-adv-x="565" 
d="M342 582h-120l77 154h131zM309 -12q-125 0 -201 76t-76 192q0 119 73 195t186 76q117 0 178 -68t61 -177q0 -34 -5 -60h-363q8 -57 48.5 -91t102.5 -34q87 0 149 64l63 -92q-81 -81 -216 -81zM291 418q-49 0 -83 -24t-43 -70h235q-1 46 -31.5 70t-77.5 24z" />
    <glyph glyph-name="ecircumflex" unicode="&#xea;" horiz-adv-x="565" 
d="M288 633l-51 -49h-131l182 162l182 -162h-131zM530 282q0 -34 -5 -60h-363q8 -57 48.5 -91t102.5 -34q87 0 149 64l63 -92q-81 -81 -216 -81q-125 0 -201 76t-76 192q0 119 73 195t186 76q117 0 178 -68t61 -177zM165 324h235q-1 46 -31.5 70t-77.5 24q-49 0 -83 -24
t-43 -70z" />
    <glyph glyph-name="edieresis" unicode="&#xeb;" horiz-adv-x="565" 
d="M174 581q-32 0 -55 22.5t-23 54.5t23 55t55 23t55 -23t22 -55t-23.5 -54.5t-53.5 -22.5zM402 581q-32 0 -55 22.5t-23 54.5t23 55t55 23t55 -23t22 -55t-23.5 -54.5t-53.5 -22.5zM309 -12q-125 0 -201 76t-76 192q0 119 73 195t186 76q117 0 178 -68t61 -177
q0 -34 -5 -60h-363q8 -57 48.5 -91t102.5 -34q87 0 149 64l63 -92q-81 -81 -216 -81zM291 418q-49 0 -83 -24t-43 -70h235q-1 46 -31.5 70t-77.5 24z" />
    <glyph glyph-name="igrave" unicode="&#xec;" horiz-adv-x="253" 
d="M72 582l-88 154h131l77 -154h-120zM63 515h127v-515h-127v515z" />
    <glyph glyph-name="iacute" unicode="&#xed;" horiz-adv-x="253" 
d="M182 582h-120l77 154h131zM63 515h127v-515h-127v515z" />
    <glyph glyph-name="icircumflex" unicode="&#xee;" horiz-adv-x="253" 
d="M127 633l-51 -49h-131l182 162l182 -162h-131zM63 0v515h127v-515h-127z" />
    <glyph glyph-name="idieresis" unicode="&#xef;" horiz-adv-x="253" 
d="M13 581q-32 0 -55 22.5t-23 54.5t23 55t55 23t55 -23t22 -55t-23.5 -54.5t-53.5 -22.5zM241 581q-32 0 -55 22.5t-23 54.5t23 55t55 23t55 -23t22 -55t-23.5 -54.5t-53.5 -22.5zM63 515h127v-515h-127v515z" />
    <glyph glyph-name="eth" unicode="&#xf0;" horiz-adv-x="601" 
d="M157 607l94 28q-47 43 -101 86v3h155q39 -27 67 -55l119 36l21 -79l-77 -23q132 -168 132 -321q0 -124 -72.5 -210t-196.5 -86q-119 0 -192.5 77t-73.5 184t69.5 179.5t161.5 72.5q81 0 135 -53q-32 66 -82 121l-137 -39zM299 377q-58 0 -97.5 -34.5t-39.5 -98.5t39 -100
t97 -36t96.5 36t38.5 100t-38 98.5t-96 34.5z" />
    <glyph glyph-name="ntilde" unicode="&#xf1;" horiz-adv-x="607" 
d="M376 582q-31 0 -71.5 29t-54.5 29q-33 0 -59 -56l-65 44q30 58 55.5 81.5t59.5 23.5q31 0 71.5 -29.5t54.5 -29.5q32 0 59 57l65 -53q-30 -53 -55.5 -74.5t-59.5 -21.5zM63 515h127v-53q46 65 156 65q96 0 149.5 -61.5t53.5 -162.5v-303h-127v289q0 125 -114 125
q-53 0 -85.5 -32.5t-32.5 -92.5v-289h-127v515z" />
    <glyph glyph-name="ograve" unicode="&#xf2;" horiz-adv-x="610" 
d="M265 582l-88 154h131l77 -154h-120zM305 -14q-125 0 -199 79.5t-74 191.5q0 111 74 190.5t199 79.5t199 -79.5t74 -190.5q0 -112 -74 -191.5t-199 -79.5zM305 414q-63 0 -104.5 -43.5t-41.5 -113.5q0 -71 41.5 -114.5t104.5 -43.5t104.5 43.5t41.5 114.5
q0 70 -41.5 113.5t-104.5 43.5z" />
    <glyph glyph-name="oacute" unicode="&#xf3;" horiz-adv-x="610" 
d="M365 582h-120l77 154h131zM305 -14q-125 0 -199 79.5t-74 191.5q0 111 74 190.5t199 79.5t199 -79.5t74 -190.5q0 -112 -74 -191.5t-199 -79.5zM305 414q-63 0 -104.5 -43.5t-41.5 -113.5q0 -71 41.5 -114.5t104.5 -43.5t104.5 43.5t41.5 114.5q0 70 -41.5 113.5
t-104.5 43.5z" />
    <glyph glyph-name="ocircumflex" unicode="&#xf4;" horiz-adv-x="610" 
d="M307 633l-51 -49h-131l182 162l182 -162h-131zM305 527q125 0 199 -79.5t74 -190.5q0 -112 -74 -191.5t-199 -79.5t-199 79.5t-74 191.5q0 111 74 190.5t199 79.5zM305 99q63 0 104.5 43.5t41.5 114.5q0 70 -41.5 113.5t-104.5 43.5t-104.5 -43.5t-41.5 -113.5
q0 -71 41.5 -114.5t104.5 -43.5z" />
    <glyph glyph-name="otilde" unicode="&#xf5;" horiz-adv-x="610" 
d="M374 582q-31 0 -71.5 29t-54.5 29q-33 0 -59 -56l-65 44q30 58 55.5 81.5t59.5 23.5q31 0 71.5 -29.5t54.5 -29.5q32 0 59 57l65 -53q-30 -53 -55.5 -74.5t-59.5 -21.5zM305 -14q-125 0 -199 79.5t-74 191.5q0 111 74 190.5t199 79.5t199 -79.5t74 -190.5
q0 -112 -74 -191.5t-199 -79.5zM305 414q-63 0 -104.5 -43.5t-41.5 -113.5q0 -71 41.5 -114.5t104.5 -43.5t104.5 43.5t41.5 114.5q0 70 -41.5 113.5t-104.5 43.5z" />
    <glyph glyph-name="odieresis" unicode="&#xf6;" horiz-adv-x="610" 
d="M195 581q-32 0 -55 22.5t-23 54.5t23 55t55 23t55 -23t22 -55t-23.5 -54.5t-53.5 -22.5zM423 581q-32 0 -55 22.5t-23 54.5t23 55t55 23t55 -23t22 -55t-23.5 -54.5t-53.5 -22.5zM305 -14q-125 0 -199 79.5t-74 191.5q0 111 74 190.5t199 79.5t199 -79.5t74 -190.5
q0 -112 -74 -191.5t-199 -79.5zM305 414q-63 0 -104.5 -43.5t-41.5 -113.5q0 -71 41.5 -114.5t104.5 -43.5t104.5 43.5t41.5 114.5q0 70 -41.5 113.5t-104.5 43.5z" />
    <glyph glyph-name="divide" unicode="&#xf7;" 
d="M301 423q-34 0 -59 25t-25 58q0 34 25 59t59 25q33 0 58.5 -25t24.5 -59q-1 -33 -25.5 -58t-57.5 -25zM60 354h479v-102h-479v102zM301 15q-34 0 -59 25t-25 58q0 34 25 59t59 25q33 0 58.5 -25t24.5 -59q-1 -33 -25.5 -58t-57.5 -25z" />
    <glyph glyph-name="oslash" unicode="&#xf8;" horiz-adv-x="610" 
d="M486 465q92 -78 92 -208q0 -112 -74 -191.5t-199 -79.5q-48 0 -87 12l-19 -33h-127l49 86q-89 78 -89 206q0 111 74 190.5t199 79.5q45 0 84 -11l19 32h126zM159 257q0 -54 26 -95l145 250q-16 2 -25 2q-63 0 -104.5 -43.5t-41.5 -113.5zM305 99q63 0 104.5 43.5
t41.5 114.5q0 58 -28 97l-146 -253q18 -2 28 -2z" />
    <glyph glyph-name="ugrave" unicode="&#xf9;" horiz-adv-x="580" 
d="M267 582l-88 154h131l77 -154h-120zM290 -12q-109 0 -171 66.5t-62 157.5v303h127v-289q0 -53 26.5 -89t79.5 -36t79.5 36t26.5 89v289h127v-303q0 -91 -62 -157.5t-171 -66.5z" />
    <glyph glyph-name="uacute" unicode="&#xfa;" horiz-adv-x="580" 
d="M354 582h-120l77 154h131zM290 -12q-109 0 -171 66.5t-62 157.5v303h127v-289q0 -53 26.5 -89t79.5 -36t79.5 36t26.5 89v289h127v-303q0 -91 -62 -157.5t-171 -66.5z" />
    <glyph glyph-name="ucircumflex" unicode="&#xfb;" horiz-adv-x="580" 
d="M309 633l-51 -49h-131l182 162l182 -162h-131zM396 515h127v-303q0 -91 -62 -157.5t-171 -66.5t-171 66.5t-62 157.5v303h127v-289q0 -53 26.5 -89t79.5 -36t79.5 36t26.5 89v289z" />
    <glyph glyph-name="udieresis" unicode="&#xfc;" horiz-adv-x="580" 
d="M182 581q-32 0 -55 22.5t-23 54.5t23 55t55 23t55 -23t22 -55t-23.5 -54.5t-53.5 -22.5zM410 581q-32 0 -55 22.5t-23 54.5t23 55t55 23t55 -23t22 -55t-23.5 -54.5t-53.5 -22.5zM290 -12q-109 0 -171 66.5t-62 157.5v303h127v-289q0 -53 26.5 -89t79.5 -36t79.5 36
t26.5 89v289h127v-303q0 -91 -62 -157.5t-171 -66.5z" />
    <glyph glyph-name="yacute" unicode="&#xfd;" horiz-adv-x="546" 
d="M412 736l-88 -154h-120l77 154h131zM404 515h135l-263 -735h-127l75 216l-222 519h136l143 -356z" />
    <glyph glyph-name="thorn" unicode="&#xfe;" horiz-adv-x="632" 
d="M190 -220h-127v990h127v-305q57 62 161 62q107 0 177.5 -75t70.5 -195t-70.5 -194.5t-177.5 -74.5q-105 0 -161 61v-269zM323 101q64 0 106.5 42t42.5 114q0 73 -42.5 115t-106.5 42q-58 0 -98.5 -42.5t-40.5 -114.5q0 -71 40.5 -113.5t98.5 -42.5z" />
    <glyph glyph-name="ydieresis" unicode="&#xff;" horiz-adv-x="546" 
d="M165 581q-32 0 -55 22.5t-23 54.5t23 55t55 23t55 -23t22 -55t-23.5 -54.5t-53.5 -22.5zM393 581q-32 0 -55 22.5t-23 54.5t23 55t55 23t55 -23t22 -55t-23.5 -54.5t-53.5 -22.5zM404 515h135l-263 -735h-127l75 216l-222 519h136l143 -356z" />
    <glyph glyph-name="Amacron" unicode="&#x100;" horiz-adv-x="686" 
d="M517 872v-102h-346v102h346zM546 0l-53 126h-299l-53 -126h-139l321 736h40l320 -736h-137zM244 244h199l-100 236z" />
    <glyph glyph-name="amacron" unicode="&#x101;" horiz-adv-x="624" 
d="M137 711h346v-102h-346v102zM437 49q-61 -61 -157 -61q-104 0 -175.5 73t-71.5 196t71.5 196.5t175.5 73.5q95 0 157 -62v50h124v-515h-124v49zM302 414q-63 0 -103 -42t-40 -115q0 -72 40 -114t103 -42q58 0 98 42t40 114t-40 114.5t-98 42.5z" />
    <glyph glyph-name="Abreve" unicode="&#x102;" horiz-adv-x="686" 
d="M340 770q-67 0 -117.5 45t-55.5 103h89q6 -28 29.5 -49t54.5 -21q32 0 55 21t29 49h90q-6 -58 -57 -103t-117 -45zM546 0l-53 126h-299l-53 -126h-139l321 736h40l320 -736h-137zM244 244h199l-100 236z" />
    <glyph glyph-name="abreve" unicode="&#x103;" horiz-adv-x="624" 
d="M313 576q-67 0 -117.5 45t-55.5 103h89q6 -28 29.5 -49t54.5 -21q32 0 55 21t29 49h90q-6 -58 -57 -103t-117 -45zM437 49q-61 -61 -157 -61q-104 0 -175.5 73t-71.5 196t71.5 196.5t175.5 73.5q95 0 157 -62v50h124v-515h-124v49zM302 414q-63 0 -103 -42t-40 -115
q0 -72 40 -114t103 -42q58 0 98 42t40 114t-40 114.5t-98 42.5z" />
    <glyph glyph-name="Aogonek" unicode="&#x104;" horiz-adv-x="686" 
d="M674 -83l24 -73q-39 -23 -93 -23q-49 0 -80.5 27t-31.5 64q0 53 53 88l-53 126h-299l-53 -126h-139l321 736h40l320 -736l-42 -19q-54 -24 -54 -54q0 -28 33 -28q28 0 54 18zM244 244h199l-100 236z" />
    <glyph glyph-name="aogonek" unicode="&#x105;" horiz-adv-x="624" 
d="M552 -83l24 -73q-39 -23 -93 -23q-49 0 -80.5 27t-31.5 64q0 53 53 88l13 8v41q-61 -61 -157 -61q-104 0 -175.5 73t-71.5 196t71.5 196.5t175.5 73.5q95 0 157 -62v50h124v-515l-42 -19q-54 -24 -54 -54q0 -28 33 -28q28 0 54 18zM302 101q58 0 98 42t40 114t-40 114.5
t-98 42.5q-63 0 -103 -42t-40 -115q0 -72 40 -114t103 -42z" />
    <glyph glyph-name="Cacute" unicode="&#x106;" horiz-adv-x="686" 
d="M438 773h-120l77 154h131zM680 115q-108 -127 -286 -127q-153 0 -254 107.5t-101 267.5t101 267.5t254 107.5q156 0 259 -100l-88 -99q-75 75 -171 75q-97 0 -160 -77.5t-63 -173.5t63 -173.5t160 -77.5q113 0 188 94z" />
    <glyph glyph-name="cacute" unicode="&#x107;" horiz-adv-x="536" 
d="M359 582h-120l77 154h131zM160 257q0 -68 39 -109.5t101 -41.5q91 0 151 68l67 -99q-81 -87 -219 -87q-120 0 -193 76.5t-73 192.5t73 192.5t193 76.5q138 0 219 -87l-67 -99q-60 68 -151 68q-62 0 -101 -41.5t-39 -109.5z" />
    <glyph glyph-name="Ccircumflex" unicode="&#x108;" horiz-adv-x="686" 
d="M381 830l-51 -49h-131l182 162l182 -162h-131zM582 206l98 -91q-108 -127 -286 -127q-153 0 -254 107.5t-101 267.5t101 267.5t254 107.5q156 0 259 -100l-88 -99q-75 75 -171 75q-97 0 -160 -77.5t-63 -173.5t63 -173.5t160 -77.5q113 0 188 94z" />
    <glyph glyph-name="ccircumflex" unicode="&#x109;" horiz-adv-x="536" 
d="M303 633l-51 -49h-131l182 162l182 -162h-131zM300 106q91 0 151 68l67 -99q-81 -87 -219 -87q-120 0 -193 76.5t-73 192.5t73 192.5t193 76.5q138 0 219 -87l-67 -99q-60 68 -151 68q-62 0 -101 -41.5t-39 -109.5t39 -109.5t101 -41.5z" />
    <glyph glyph-name="Cdotaccent" unicode="&#x10a;" horiz-adv-x="686" 
d="M392 770q-31 0 -54.5 23t-23.5 54t23 54.5t55 23.5q31 0 54.5 -23.5t22.5 -54.5t-23.5 -54t-53.5 -23zM680 115q-108 -127 -286 -127q-153 0 -254 107.5t-101 267.5t101 267.5t254 107.5q156 0 259 -100l-88 -99q-75 75 -171 75q-97 0 -160 -77.5t-63 -173.5t63 -173.5
t160 -77.5q113 0 188 94z" />
    <glyph glyph-name="cdotaccent" unicode="&#x10b;" horiz-adv-x="536" 
d="M295 581q-31 0 -54.5 23t-23.5 54q0 32 23.5 55t54.5 23t54.5 -23.5t22.5 -54.5t-23.5 -54t-53.5 -23zM160 257q0 -68 39 -109.5t101 -41.5q91 0 151 68l67 -99q-81 -87 -219 -87q-120 0 -193 76.5t-73 192.5t73 192.5t193 76.5q138 0 219 -87l-67 -99q-60 68 -151 68
q-62 0 -101 -41.5t-39 -109.5z" />
    <glyph glyph-name="Ccaron" unicode="&#x10c;" horiz-adv-x="686" 
d="M573 931l-182 -162l-182 162h131l51 -49l51 49h131zM582 206l98 -91q-108 -127 -286 -127q-153 0 -254 107.5t-101 267.5t101 267.5t254 107.5q156 0 259 -100l-88 -99q-75 75 -171 75q-97 0 -160 -77.5t-63 -173.5t63 -173.5t160 -77.5q113 0 188 94z" />
    <glyph glyph-name="ccaron" unicode="&#x10d;" horiz-adv-x="536" 
d="M484 738l-182 -162l-182 162h131l51 -49l51 49h131zM300 106q91 0 151 68l67 -99q-81 -87 -219 -87q-120 0 -193 76.5t-73 192.5t73 192.5t193 76.5q138 0 219 -87l-67 -99q-60 68 -151 68q-62 0 -101 -41.5t-39 -109.5t39 -109.5t101 -41.5z" />
    <glyph glyph-name="Dcaron" unicode="&#x10e;" horiz-adv-x="750" 
d="M527 931l-182 -162l-182 162h131l51 -49l51 49h131zM358 724q145 0 249 -100t104 -262t-104 -262t-249 -100h-280v724h280zM351 118q96 0 163 68t67 176t-67.5 176.5t-162.5 68.5h-143v-489h143z" />
    <glyph glyph-name="dcaron" unicode="&#x10f;" horiz-adv-x="662" 
d="M442 0v49q-56 -61 -161 -61q-107 0 -177.5 74.5t-70.5 194.5t70.5 195t177.5 75q104 0 161 -62v305h127v-770h-127zM626 770h122l-38 -234h-84v234zM309 101q58 0 98.5 42.5t40.5 113.5q0 72 -40.5 114.5t-98.5 42.5q-64 0 -106.5 -42t-42.5 -115q0 -72 42.5 -114
t106.5 -42z" />
    <glyph glyph-name="Dcroat" unicode="&#x110;" horiz-adv-x="758" 
d="M366 724q145 0 249 -100t104 -262t-104 -262t-249 -100h-280v288h-60v110h60v326h280zM359 118q96 0 163 68t67 176t-67 176.5t-163 68.5h-143v-209h174v-110h-174v-170h143z" />
    <glyph glyph-name="dcroat" unicode="&#x111;" horiz-adv-x="632" 
d="M629 666v-86h-60v-580h-127v49q-56 -61 -161 -61q-107 0 -177.5 74.5t-70.5 194.5t70.5 195t177.5 75q104 0 161 -62v115h-138v86h138v104h127v-104h60zM309 101q58 0 98.5 42.5t40.5 113.5q0 72 -40.5 114.5t-98.5 42.5q-64 0 -106.5 -42t-42.5 -115q0 -72 42.5 -114
t106.5 -42z" />
    <glyph glyph-name="Emacron" unicode="&#x112;" horiz-adv-x="578" 
d="M132 872h346v-102h-346v102zM78 724h448v-118h-318v-181h296v-118h-296v-189h318v-118h-448v724z" />
    <glyph glyph-name="emacron" unicode="&#x113;" horiz-adv-x="565" 
d="M104 711h346v-102h-346v102zM309 -12q-125 0 -201 76t-76 192q0 119 73 195t186 76q117 0 178 -68t61 -177q0 -34 -5 -60h-363q8 -57 48.5 -91t102.5 -34q87 0 149 64l63 -92q-81 -81 -216 -81zM291 418q-49 0 -83 -24t-43 -70h235q-1 46 -31.5 70t-77.5 24z" />
    <glyph glyph-name="Ebreve" unicode="&#x114;" horiz-adv-x="578" 
d="M296 770q-67 0 -117.5 45t-55.5 103h89q6 -28 29.5 -49t54.5 -21q32 0 55 21t29 49h90q-6 -58 -57 -103t-117 -45zM78 724h448v-118h-318v-181h296v-118h-296v-189h318v-118h-448v724z" />
    <glyph glyph-name="ebreve" unicode="&#x115;" horiz-adv-x="565" 
d="M294 576q-67 0 -117.5 45t-55.5 103h89q6 -28 29.5 -49t54.5 -21q32 0 55 21t29 49h90q-6 -58 -57 -103t-117 -45zM309 -12q-125 0 -201 76t-76 192q0 119 73 195t186 76q117 0 178 -68t61 -177q0 -34 -5 -60h-363q8 -57 48.5 -91t102.5 -34q87 0 149 64l63 -92
q-81 -81 -216 -81zM291 418q-49 0 -83 -24t-43 -70h235q-1 46 -31.5 70t-77.5 24z" />
    <glyph glyph-name="Edotaccent" unicode="&#x116;" horiz-adv-x="578" 
d="M305 770q-31 0 -54.5 23t-23.5 54t23.5 54.5t54.5 23.5t54.5 -23.5t22.5 -54.5t-23.5 -54t-53.5 -23zM78 724h448v-118h-318v-181h296v-118h-296v-189h318v-118h-448v724z" />
    <glyph glyph-name="edotaccent" unicode="&#x117;" horiz-adv-x="565" 
d="M293 581q-31 0 -54.5 23t-23.5 54q0 32 23.5 55t54.5 23t54.5 -23.5t22.5 -54.5t-23.5 -54t-53.5 -23zM309 -12q-125 0 -201 76t-76 192q0 119 73 195t186 76q117 0 178 -68t61 -177q0 -34 -5 -60h-363q8 -57 48.5 -91t102.5 -34q87 0 149 64l63 -92q-81 -81 -216 -81z
M291 418q-49 0 -83 -24t-43 -70h235q-1 46 -31.5 70t-77.5 24z" />
    <glyph glyph-name="Eogonek" unicode="&#x118;" horiz-adv-x="578" 
d="M517 -83l24 -73q-39 -23 -93 -23q-49 0 -80.5 27t-31.5 64q0 53 53 88h-311v724h448v-118h-318v-181h296v-118h-296v-189h318v-118l-42 -19q-54 -24 -54 -54q0 -28 33 -28q28 0 54 18z" />
    <glyph glyph-name="eogonek" unicode="&#x119;" horiz-adv-x="565" 
d="M530 282q0 -34 -5 -60h-363q8 -57 48.5 -91t102.5 -34q87 0 149 64l63 -92q-24 -24 -54 -41l-64 -38q-32 -19 -44.5 -31.5t-12.5 -25.5q0 -29 36 -29q29 0 54 19l24 -77q-38 -24 -93 -24q-52 0 -83.5 28t-31.5 68q0 38 31 71q-115 7 -185 82t-70 185q0 119 73 195t186 76
q117 0 178 -68t61 -177zM165 324h235q-1 46 -31.5 70t-77.5 24q-49 0 -83 -24t-43 -70z" />
    <glyph glyph-name="Ecaron" unicode="&#x11a;" horiz-adv-x="578" 
d="M497 931l-182 -162l-182 162h131l51 -49l51 49h131zM526 606h-318v-181h296v-118h-296v-189h318v-118h-448v724h448v-118z" />
    <glyph glyph-name="ecaron" unicode="&#x11b;" horiz-adv-x="565" 
d="M477 738l-182 -162l-182 162h131l51 -49l51 49h131zM530 282q0 -34 -5 -60h-363q8 -57 48.5 -91t102.5 -34q87 0 149 64l63 -92q-81 -81 -216 -81q-125 0 -201 76t-76 192q0 119 73 195t186 76q117 0 178 -68t61 -177zM165 324h235q-1 46 -31.5 70t-77.5 24
q-49 0 -83 -24t-43 -70z" />
    <glyph glyph-name="Gcircumflex" unicode="&#x11c;" horiz-adv-x="813" 
d="M395 830l-51 -49h-131l182 162l182 -162h-131zM784 408v-22q0 -20 -2 -52q-11 -147 -116.5 -246.5t-255.5 -99.5q-157 0 -265 109.5t-108 265.5t108 265.5t265 109.5q164 0 274 -118l-95 -89q-75 85 -179 85q-102 0 -172.5 -76.5t-70.5 -176.5t70.5 -176.5t172.5 -76.5
q80 0 142 49t88 124l-109 125h253z" />
    <glyph glyph-name="gcircumflex" unicode="&#x11d;" horiz-adv-x="607" 
d="M302 633l-51 -49h-131l182 162l182 -162h-131zM423 515h121v-482q0 -96 -66.5 -165t-182.5 -69q-108 0 -174 59t-75 142h124q24 -88 125 -88q62 0 96 37.5t34 93.5v46q-54 -56 -155 -56q-100 0 -168 68t-68 178q0 111 68 179t168 68q97 0 153 -56v45zM293 142q54 0 94 38
t40 99q0 62 -40 100.5t-94 38.5q-60 0 -99 -38t-39 -101t39 -100t99 -37z" />
    <glyph glyph-name="Gbreve" unicode="&#x11e;" horiz-adv-x="813" 
d="M391 770q-67 0 -117.5 45t-55.5 103h89q6 -28 29.5 -49t54.5 -21q32 0 55 21t29 49h90q-6 -58 -57 -103t-117 -45zM784 408v-22q0 -20 -2 -52q-11 -147 -116.5 -246.5t-255.5 -99.5q-157 0 -265 109.5t-108 265.5t108 265.5t265 109.5q164 0 274 -118l-95 -89
q-75 85 -179 85q-102 0 -172.5 -76.5t-70.5 -176.5t70.5 -176.5t172.5 -76.5q80 0 142 49t88 124l-109 125h253z" />
    <glyph glyph-name="gbreve" unicode="&#x11f;" horiz-adv-x="607" 
d="M299 576q-67 0 -117.5 45t-55.5 103h89q6 -28 29.5 -49t54.5 -21q32 0 55 21t29 49h90q-6 -58 -57 -103t-117 -45zM34 279q0 -110 68 -178t168 -68q101 0 155 56v-46q0 -56 -34 -93.5t-96 -37.5q-101 0 -125 88h-124q9 -83 75 -142t174 -59q116 0 182.5 69t66.5 165v482
h-121v-45q-56 56 -153 56q-100 0 -168 -68t-68 -179zM155 279q0 63 39 101t99 38q54 0 94 -38.5t40 -100.5q0 -61 -40 -99t-94 -38q-60 0 -99 37t-39 100z" />
    <glyph glyph-name="Gdotaccent" unicode="&#x120;" horiz-adv-x="813" 
d="M390 770q-31 0 -54.5 23t-23.5 54t23 54.5t55 23.5q31 0 54.5 -23.5t22.5 -54.5t-23.5 -54t-53.5 -23zM784 408v-22q0 -20 -2 -52q-11 -147 -116.5 -246.5t-255.5 -99.5q-157 0 -265 109.5t-108 265.5t108 265.5t265 109.5q164 0 274 -118l-95 -89q-75 85 -179 85
q-102 0 -172.5 -76.5t-70.5 -176.5t70.5 -176.5t172.5 -76.5q80 0 142 49t88 124l-109 125h253z" />
    <glyph glyph-name="gdotaccent" unicode="&#x121;" horiz-adv-x="607" 
d="M303 581q-31 0 -54.5 23t-23.5 54q0 32 23.5 55t54.5 23t54.5 -23.5t22.5 -54.5t-23.5 -54t-53.5 -23zM34 279q0 -110 68 -178t168 -68q101 0 155 56v-46q0 -56 -34 -93.5t-96 -37.5q-101 0 -125 88h-124q9 -83 75 -142t174 -59q116 0 182.5 69t66.5 165v482h-121v-45
q-56 56 -153 56q-100 0 -168 -68t-68 -179zM155 279q0 63 39 101t99 38q54 0 94 -38.5t40 -100.5q0 -61 -40 -99t-94 -38q-60 0 -99 37t-39 100z" />
    <glyph glyph-name="Gcommaaccent" unicode="&#x122;" horiz-adv-x="813" 
d="M784 408v-22q0 -20 -2 -52q-11 -147 -116.5 -246.5t-255.5 -99.5q-157 0 -265 109.5t-108 265.5t108 265.5t265 109.5q164 0 274 -118l-95 -89q-75 85 -179 85q-102 0 -172.5 -76.5t-70.5 -176.5t70.5 -176.5t172.5 -76.5q80 0 142 49t88 124l-109 125h253zM326 -257v195
h141l-65 -195h-76z" />
    <glyph glyph-name="gcommaaccent" unicode="&#x123;" horiz-adv-x="607" 
d="M290 778h76v-195h-141zM34 279q0 -110 68 -178t168 -68q101 0 155 56v-46q0 -56 -34 -93.5t-96 -37.5q-101 0 -125 88h-124q9 -83 75 -142t174 -59q116 0 182.5 69t66.5 165v482h-121v-45q-56 56 -153 56q-100 0 -168 -68t-68 -179zM155 279q0 63 39 101t99 38
q54 0 94 -38.5t40 -100.5q0 -61 -40 -99t-94 -38q-60 0 -99 37t-39 100z" />
    <glyph glyph-name="Hcircumflex" unicode="&#x124;" horiz-adv-x="753" 
d="M386 830l-51 -49h-131l182 162l182 -162h-131zM545 724h130v-724h-130v307h-337v-307h-130v724h130v-299h337v299z" />
    <glyph glyph-name="hcircumflex" unicode="&#x125;" horiz-adv-x="607" 
d="M308 867l-51 -49h-131l182 162l182 -162h-131zM346 527q96 0 149.5 -61.5t53.5 -162.5v-303h-127v289q0 125 -114 125q-53 0 -85.5 -32.5t-32.5 -92.5v-289h-127v770h127v-308q46 65 156 65z" />
    <glyph glyph-name="Hbar" unicode="&#x126;" horiz-adv-x="776" 
d="M755 582v-94h-70v-488h-130v307h-337v-307h-130v488h-65v94h65v142h130v-142h337v142h130v-142h70zM555 425v63h-337v-63h337z" />
    <glyph glyph-name="hbar" unicode="&#x127;" horiz-adv-x="607" 
d="M346 527q96 0 149.5 -61.5t53.5 -162.5v-303h-127v289q0 125 -114 125q-53 0 -85.5 -32.5t-32.5 -92.5v-289h-127v570h-59v86h59v114h127v-114h139v-86h-139v-108q46 65 156 65z" />
    <glyph glyph-name="Itilde" unicode="&#x128;" horiz-adv-x="286" 
d="M207 800q-31 0 -71.5 29t-54.5 29q-33 0 -59 -56l-65 44q30 58 55.5 81.5t59.5 23.5q31 0 71.5 -29.5t54.5 -29.5q32 0 59 57l65 -53q-30 -53 -55.5 -74.5t-59.5 -21.5zM78 724h130v-724h-130v724z" />
    <glyph glyph-name="itilde" unicode="&#x129;" horiz-adv-x="253" 
d="M196 582q-31 0 -71.5 29t-54.5 29q-33 0 -59 -56l-65 44q30 58 55.5 81.5t59.5 23.5q31 0 71.5 -29.5t54.5 -29.5q32 0 59 57l65 -53q-30 -53 -55.5 -74.5t-59.5 -21.5zM63 515h127v-515h-127v515z" />
    <glyph glyph-name="Imacron" unicode="&#x12a;" horiz-adv-x="286" 
d="M-26 872h346v-102h-346v102zM78 724h130v-724h-130v724z" />
    <glyph glyph-name="imacron" unicode="&#x12b;" horiz-adv-x="253" 
d="M-39 711h346v-102h-346v102zM63 515h127v-515h-127v515z" />
    <glyph glyph-name="Ibreve" unicode="&#x12c;" horiz-adv-x="286" 
d="M141 770q-67 0 -117.5 45t-55.5 103h89q6 -28 29.5 -49t54.5 -21q32 0 55 21t29 49h90q-6 -58 -57 -103t-117 -45zM78 724h130v-724h-130v724z" />
    <glyph glyph-name="ibreve" unicode="&#x12d;" horiz-adv-x="253" 
d="M127 576q-67 0 -117.5 45t-55.5 103h89q6 -28 29.5 -49t54.5 -21q32 0 55 21t29 49h90q-6 -58 -57 -103t-117 -45zM63 515h127v-515h-127v515z" />
    <glyph glyph-name="Iogonek" unicode="&#x12e;" horiz-adv-x="286" 
d="M199 -83l24 -73q-39 -23 -93 -23q-49 0 -80.5 27t-31.5 64q0 53 53 88l7 5v719h130v-724l-42 -19q-54 -24 -54 -54q0 -28 33 -28q29 0 54 18z" />
    <glyph glyph-name="iogonek" unicode="&#x12f;" horiz-adv-x="254" 
d="M127 626q-32 0 -55 22.5t-23 54.5t23 55t55 23t55 -23t22 -55t-23.5 -54.5t-53.5 -22.5zM182 -83l24 -73q-39 -23 -93 -23q-49 0 -80.5 27t-31.5 64q0 53 53 88l10 6v509h127v-515l-42 -19q-54 -24 -54 -54q0 -28 33 -28q28 0 54 18z" />
    <glyph glyph-name="Idotaccent" unicode="&#x130;" horiz-adv-x="286" 
d="M142 770q-31 0 -54.5 23t-23.5 54t23 54.5t55 23.5q31 0 54.5 -23.5t22.5 -54.5t-23.5 -54t-53.5 -23zM78 724h130v-724h-130v724z" />
    <glyph glyph-name="dotlessi" unicode="&#x131;" horiz-adv-x="253" 
d="M63 515h127v-515h-127v515z" />
    <glyph glyph-name="Jcircumflex" unicode="&#x134;" horiz-adv-x="587" 
d="M448 830l-51 -49h-131l182 162l182 -162h-131zM386 275v450h130v-455q0 -123 -67 -202.5t-181 -79.5q-111 0 -177 75.5t-71 179.5h130q0 -52 29.5 -92.5t88.5 -40.5q61 0 89.5 45t28.5 120z" />
    <glyph glyph-name="jcircumflex" unicode="&#x135;" horiz-adv-x="253" 
d="M124 633l-51 -49h-131l182 162l182 -162h-131zM63 -220v735h127v-735h-127z" />
    <glyph glyph-name="Kcommaaccent" unicode="&#x136;" horiz-adv-x="659" 
d="M409 401l263 -401h-154l-196 300h-114v-300h-130v724h130v-399l269 399h152zM277 -257v195h141l-65 -195h-76z" />
    <glyph glyph-name="kcommaaccent" unicode="&#x137;" horiz-adv-x="538" 
d="M335 280l221 -280h-154l-212 265v-265h-127v770h127v-492l171 237h153zM295 -257h-76v195h141z" />
    <glyph glyph-name="Lacute" unicode="&#x139;" horiz-adv-x="506" 
d="M203 782h-120l77 154h131zM78 724h130v-606h279v-118h-409v724z" />
    <glyph glyph-name="lacute" unicode="&#x13a;" horiz-adv-x="253" 
d="M186 805h-120l77 154h131zM63 770h127v-770h-127v770z" />
    <glyph glyph-name="Lcommaaccent" unicode="&#x13b;" horiz-adv-x="506" 
d="M78 724h130v-606h279v-118h-409v724zM293 -257h-76v195h141z" />
    <glyph glyph-name="lcommaaccent" unicode="&#x13c;" horiz-adv-x="253" 
d="M63 770h127v-770h-127v770zM138 -257h-76v195h141z" />
    <glyph glyph-name="Lcaron" unicode="&#x13d;" horiz-adv-x="511" 
d="M78 724h130v-606h279v-118h-409v724zM310 724h122l-38 -234h-84v234z" />
    <glyph glyph-name="lcaron" unicode="&#x13e;" horiz-adv-x="283" 
d="M63 770h127v-770h-127v770zM245 770h122l-38 -234h-84v234z" />
    <glyph glyph-name="Ldot" unicode="&#x13f;" horiz-adv-x="524" 
d="M78 724h130v-606h279v-118h-409v724zM406 300q-31 0 -54.5 23t-23.5 54t23 54.5t55 23.5q31 0 54.5 -23.5t22.5 -54.5t-23.5 -54t-53.5 -23z" />
    <glyph glyph-name="ldot" unicode="&#x140;" horiz-adv-x="377" 
d="M63 770h127v-770h-127v770zM315 288q-31 0 -54.5 23t-23.5 54t23.5 54.5t54.5 23.5t54.5 -23.5t22.5 -54.5t-23.5 -54t-53.5 -23z" />
    <glyph glyph-name="Lslash" unicode="&#x141;" horiz-adv-x="513" 
d="M215 118h279v-118h-409v213l-54 -25v121l54 25v390h130v-329l136 64v-121l-136 -64v-156z" />
    <glyph glyph-name="lslash" unicode="&#x142;" horiz-adv-x="361" 
d="M339 497v-112l-94 -45v-340h-127v278l-88 -42v112l88 42v380h127v-318z" />
    <glyph glyph-name="Nacute" unicode="&#x143;" horiz-adv-x="770" 
d="M418 782h-120l77 154h131zM652 -12l-443 471l-1 -459h-130v736h40l443 -470l1 458h130v-736h-40z" />
    <glyph glyph-name="nacute" unicode="&#x144;" horiz-adv-x="607" 
d="M360 582h-120l77 154h131zM63 515h127v-53q46 65 156 65q96 0 149.5 -61.5t53.5 -162.5v-303h-127v289q0 125 -114 125q-53 0 -85.5 -32.5t-32.5 -92.5v-289h-127v515z" />
    <glyph glyph-name="Ncommaaccent" unicode="&#x145;" horiz-adv-x="770" 
d="M652 -12l-443 471l-1 -459h-130v736h40l443 -470l1 458h130v-736h-40zM404 -257h-76v195h141z" />
    <glyph glyph-name="ncommaaccent" unicode="&#x146;" horiz-adv-x="607" 
d="M63 515h127v-53q46 65 156 65q96 0 149.5 -61.5t53.5 -162.5v-303h-127v289q0 125 -114 125q-53 0 -85.5 -32.5t-32.5 -92.5v-289h-127v515zM322 -257h-76v195h141z" />
    <glyph glyph-name="Ncaron" unicode="&#x147;" horiz-adv-x="770" 
d="M563 931l-182 -162l-182 162h131l51 -49l51 49h131zM562 724h130v-736h-40l-443 471l-1 -459h-130v736h40l443 -470z" />
    <glyph glyph-name="ncaron" unicode="&#x148;" horiz-adv-x="607" 
d="M490 738l-182 -162l-182 162h131l51 -49l51 49h131zM346 527q96 0 149.5 -61.5t53.5 -162.5v-303h-127v289q0 125 -114 125q-53 0 -85.5 -32.5t-32.5 -92.5v-289h-127v515h127v-53q46 65 156 65z" />
    <glyph glyph-name="Eng" unicode="&#x14a;" horiz-adv-x="770" 
d="M562 724h130v-736q-8 -145 -132 -217l-75 88q40 31 58.5 62.5t18.5 85.5v77l-353 375l-1 -459h-130v736h40l443 -470z" />
    <glyph glyph-name="eng" unicode="&#x14b;" horiz-adv-x="607" 
d="M346 527q96 0 149.5 -61.5t53.5 -162.5v-303q-3 -156 -132 -229l-75 88q41 32 60.5 65t19.5 87v278q0 125 -114 125q-53 0 -85.5 -32.5t-32.5 -92.5v-289h-127v515h127v-53q46 65 156 65z" />
    <glyph glyph-name="Omacron" unicode="&#x14c;" horiz-adv-x="820" 
d="M237 872h346v-102h-346v102zM783 363q0 -156 -108 -265.5t-265 -109.5t-265 109.5t-108 265.5t108 265.5t265 109.5t265 -109.5t108 -265.5zM167 363q0 -102 69.5 -177.5t173.5 -75.5q103 0 173 75.5t70 177.5t-70 177.5t-173 75.5q-104 0 -173.5 -75.5t-69.5 -177.5z
" />
    <glyph glyph-name="omacron" unicode="&#x14d;" horiz-adv-x="610" 
d="M129 711h346v-102h-346v102zM305 -14q-125 0 -199 79.5t-74 191.5q0 111 74 190.5t199 79.5t199 -79.5t74 -190.5q0 -112 -74 -191.5t-199 -79.5zM305 414q-63 0 -104.5 -43.5t-41.5 -113.5q0 -71 41.5 -114.5t104.5 -43.5t104.5 43.5t41.5 114.5q0 70 -41.5 113.5
t-104.5 43.5z" />
    <glyph glyph-name="Obreve" unicode="&#x14e;" horiz-adv-x="820" 
d="M410 770q-67 0 -117.5 45t-55.5 103h89q6 -28 29.5 -49t54.5 -21q32 0 55 21t29 49h90q-6 -58 -57 -103t-117 -45zM783 363q0 -156 -108 -265.5t-265 -109.5t-265 109.5t-108 265.5t108 265.5t265 109.5t265 -109.5t108 -265.5zM167 363q0 -102 69.5 -177.5t173.5 -75.5
q103 0 173 75.5t70 177.5t-70 177.5t-173 75.5q-104 0 -173.5 -75.5t-69.5 -177.5z" />
    <glyph glyph-name="obreve" unicode="&#x14f;" horiz-adv-x="610" 
d="M303 576q-67 0 -117.5 45t-55.5 103h89q6 -28 29.5 -49t54.5 -21q32 0 55 21t29 49h90q-6 -58 -57 -103t-117 -45zM305 -14q-125 0 -199 79.5t-74 191.5q0 111 74 190.5t199 79.5t199 -79.5t74 -190.5q0 -112 -74 -191.5t-199 -79.5zM305 414q-63 0 -104.5 -43.5
t-41.5 -113.5q0 -71 41.5 -114.5t104.5 -43.5t104.5 43.5t41.5 114.5q0 70 -41.5 113.5t-104.5 43.5z" />
    <glyph glyph-name="Ohungarumlaut" unicode="&#x150;" horiz-adv-x="820" 
d="M356 770h-120l77 154h131zM574 770h-120l77 154h131zM783 363q0 -156 -108 -265.5t-265 -109.5t-265 109.5t-108 265.5t108 265.5t265 109.5t265 -109.5t108 -265.5zM167 363q0 -102 69.5 -177.5t173.5 -75.5q103 0 173 75.5t70 177.5t-70 177.5t-173 75.5
q-104 0 -173.5 -75.5t-69.5 -177.5z" />
    <glyph glyph-name="ohungarumlaut" unicode="&#x151;" horiz-adv-x="610" 
d="M252 584h-120l77 154h131zM470 584h-120l77 154h131zM305 -14q-125 0 -199 79.5t-74 191.5q0 111 74 190.5t199 79.5t199 -79.5t74 -190.5q0 -112 -74 -191.5t-199 -79.5zM305 414q-63 0 -104.5 -43.5t-41.5 -113.5q0 -71 41.5 -114.5t104.5 -43.5t104.5 43.5t41.5 114.5
q0 70 -41.5 113.5t-104.5 43.5z" />
    <glyph glyph-name="OE" unicode="&#x152;" horiz-adv-x="991" 
d="M939 606h-318v-201h298v-118h-298v-169h318v-118h-433q-46 -12 -96 -12q-157 0 -265 109.5t-108 265.5t108 265.5t265 109.5q53 0 103 -14h426v-118zM167 363q0 -102 69.5 -177.5t173.5 -75.5q42 0 81 14v478q-39 14 -81 14q-104 0 -173.5 -75.5t-69.5 -177.5z" />
    <glyph glyph-name="oe" unicode="&#x153;" horiz-adv-x="985" 
d="M720 -13q-137 0 -210 96q-72 -97 -207 -97q-127 0 -198.5 79t-71.5 192q0 112 71.5 191t198.5 79q133 0 205 -95q70 95 200 95q111 0 177.5 -70t66.5 -182q0 -31 -6 -62h-372q10 -54 48 -85t101 -31q91 0 147 76l70 -83q-85 -103 -220 -103zM830 317q-6 50 -40 77.5
t-86 27.5q-49 0 -83 -27.5t-45 -77.5h254zM306 99q63 0 103.5 43.5t40.5 114.5q0 70 -40.5 113.5t-103.5 43.5t-103.5 -43.5t-40.5 -113.5q0 -71 40.5 -114.5t103.5 -43.5z" />
    <glyph glyph-name="Racute" unicode="&#x154;" horiz-adv-x="661" 
d="M461 936l-88 -154h-120l77 154h131zM651 0h-151l-197 301l-95 1v-302h-130v724h280q110 0 179.5 -53t69.5 -156q0 -78 -45.5 -130t-117.5 -72zM208 606v-191h134q61 0 96 25.5t35 74.5q0 91 -131 91h-134z" />
    <glyph glyph-name="racute" unicode="&#x155;" horiz-adv-x="453" 
d="M290 582h-120l77 154h131zM63 515h127v-49q33 61 115 61q63 0 100 -46t33 -128h-124q0 28 -16 45t-43 17q-65 0 -65 -107v-308h-127v515z" />
    <glyph glyph-name="Rcommaaccent" unicode="&#x156;" horiz-adv-x="661" 
d="M444 313l207 -313h-151l-197 301l-95 1v-302h-130v724h280q110 0 179.5 -53t69.5 -156q0 -78 -45.5 -130t-117.5 -72zM208 606v-191h134q61 0 96 25.5t35 74.5q0 91 -131 91h-134zM266 -257v195h141l-65 -195h-76z" />
    <glyph glyph-name="rcommaaccent" unicode="&#x157;" horiz-adv-x="453" 
d="M63 515h127v-49q33 61 115 61q63 0 100 -46t33 -128h-124q0 28 -16 45t-43 17q-65 0 -65 -107v-308h-127v515zM139 -257h-76v195h141z" />
    <glyph glyph-name="Rcaron" unicode="&#x158;" horiz-adv-x="661" 
d="M500 931l-182 -162l-182 162h131l51 -49l51 49h131zM651 0h-151l-197 301l-95 1v-302h-130v724h280q110 0 179.5 -53t69.5 -156q0 -78 -45.5 -130t-117.5 -72zM208 606v-191h134q61 0 96 25.5t35 74.5q0 91 -131 91h-134z" />
    <glyph glyph-name="rcaron" unicode="&#x159;" horiz-adv-x="453" 
d="M427 738l-182 -162l-182 162h131l51 -49l51 49h131zM305 527q63 0 100 -46t33 -128h-124q0 28 -16 45t-43 17q-65 0 -65 -107v-308h-127v515h127v-49q33 61 115 61z" />
    <glyph glyph-name="Sacute" unicode="&#x15a;" horiz-adv-x="552" 
d="M327 782h-120l77 154h131zM371 558q-40 58 -108 58q-30 0 -50.5 -20t-20.5 -48q0 -50 64 -72l61 -22q203 -74 203 -236q0 -104 -73 -167t-186 -63q-93 0 -156 44.5t-88 102.5l103 75q44 -100 152 -100q53 0 85.5 30t32.5 79q0 78 -107 115l-64 23q-155 55 -156 193
q-1 73 58 129.5t142 56.5q133 0 205 -102z" />
    <glyph glyph-name="sacute" unicode="&#x15b;" horiz-adv-x="440" 
d="M283 582h-120l77 154h131zM216 -12q-72 0 -122.5 28t-75.5 71l83 83q34 -71 115 -71q29 0 49 15.5t20 41.5q0 42 -65 64l-46 15q-122 40 -122 148q0 59 47 101.5t113 42.5q60 0 104.5 -24t66.5 -60l-83 -72q-33 48 -83 48q-21 0 -33.5 -10.5t-12.5 -25.5q0 -31 47 -47
l44 -15q146 -50 146 -165q0 -72 -54.5 -120t-137.5 -48z" />
    <glyph glyph-name="Scircumflex" unicode="&#x15c;" horiz-adv-x="552" 
d="M280 830l-51 -49h-131l182 162l182 -162h-131zM317 454q203 -74 203 -236q0 -104 -73 -167t-186 -63q-93 0 -156 44.5t-88 102.5l103 75q44 -100 152 -100q53 0 85.5 30t32.5 79q0 78 -107 115l-64 23q-155 55 -156 193q-1 73 58 129.5t142 56.5q133 0 205 -102l-97 -76
q-40 58 -108 58q-30 0 -50.5 -20t-20.5 -48q0 -50 64 -72z" />
    <glyph glyph-name="scircumflex" unicode="&#x15d;" horiz-adv-x="440" 
d="M223 633l-51 -49h-131l182 162l182 -162h-131zM262 321q146 -50 146 -165q0 -72 -54.5 -120t-137.5 -48q-72 0 -122.5 28t-75.5 71l83 83q34 -71 115 -71q29 0 49 15.5t20 41.5q0 42 -65 64l-46 15q-122 40 -122 148q0 59 47 101.5t113 42.5q60 0 104.5 -24t66.5 -60
l-83 -72q-33 48 -83 48q-21 0 -33.5 -10.5t-12.5 -25.5q0 -31 47 -47z" />
    <glyph glyph-name="Scedilla" unicode="&#x15e;" horiz-adv-x="552" 
d="M520 218q0 -95 -62 -156.5t-161 -71.5l-7 -22l2 1q39 0 61 -20t22 -46q0 -34 -29.5 -58t-70.5 -24q-47 0 -95 10l11 64q37 -13 68 -13q25 0 25 21q0 32 -91 33l19 56q-73 12 -123.5 53t-71.5 90l103 75q44 -100 152 -100q53 0 85.5 30t32.5 79q0 78 -107 115l-64 23
q-155 55 -156 193q-1 73 58 129.5t142 56.5q133 0 205 -102l-97 -76q-40 58 -108 58q-30 0 -50.5 -20t-20.5 -48q0 -50 64 -72l61 -22q203 -74 203 -236z" />
    <glyph glyph-name="scedilla" unicode="&#x15f;" horiz-adv-x="440" 
d="M408 156q0 -66 -47 -113t-121 -54l-7 -21l2 1q39 0 61 -20t22 -46q0 -34 -29.5 -58t-70.5 -24q-47 0 -95 10l11 64q37 -13 68 -13q25 0 25 21q0 32 -91 33l20 58q-95 19 -138 93l83 83q34 -71 115 -71q29 0 49 15.5t20 41.5q0 42 -65 64l-46 15q-122 40 -122 148
q0 59 47 101.5t113 42.5q60 0 104.5 -24t66.5 -60l-83 -72q-33 48 -83 48q-21 0 -33.5 -10.5t-12.5 -25.5q0 -31 47 -47l44 -15q146 -50 146 -165z" />
    <glyph glyph-name="Scaron" unicode="&#x160;" horiz-adv-x="552" 
d="M453 931l-182 -162l-182 162h131l51 -49l51 49h131zM317 454q203 -74 203 -236q0 -104 -73 -167t-186 -63q-93 0 -156 44.5t-88 102.5l103 75q44 -100 152 -100q53 0 85.5 30t32.5 79q0 78 -107 115l-64 23q-155 55 -156 193q-1 73 58 129.5t142 56.5q133 0 205 -102
l-97 -76q-40 58 -108 58q-30 0 -50.5 -20t-20.5 -48q0 -50 64 -72z" />
    <glyph glyph-name="scaron" unicode="&#x161;" horiz-adv-x="440" 
d="M410 738l-182 -162l-182 162h131l51 -49l51 49h131zM262 321q146 -50 146 -165q0 -72 -54.5 -120t-137.5 -48q-72 0 -122.5 28t-75.5 71l83 83q34 -71 115 -71q29 0 49 15.5t20 41.5q0 42 -65 64l-46 15q-122 40 -122 148q0 59 47 101.5t113 42.5q60 0 104.5 -24
t66.5 -60l-83 -72q-33 48 -83 48q-21 0 -33.5 -10.5t-12.5 -25.5q0 -31 47 -47z" />
    <glyph glyph-name="uni0162" unicode="&#x162;" horiz-adv-x="540" 
d="M205 606h-187v118h504v-118h-187v-606h-130v606zM280 -257h-76v195h141z" />
    <glyph glyph-name="uni0163" unicode="&#x163;" horiz-adv-x="383" 
d="M240 667v-152h129v-102h-129v-413h-127v413h-109l206 254h30zM186 -257h-76v195h141z" />
    <glyph glyph-name="Tcaron" unicode="&#x164;" horiz-adv-x="540" 
d="M449 931l-182 -162l-182 162h131l51 -49l51 49h131zM18 724h504v-118h-187v-606h-130v606h-187v118z" />
    <glyph glyph-name="tcaron" unicode="&#x165;" horiz-adv-x="383" 
d="M298 809h122l-38 -234h-84v234zM240 667v-152h129v-102h-129v-413h-127v413h-109l206 254h30z" />
    <glyph glyph-name="Tbar" unicode="&#x166;" horiz-adv-x="564" 
d="M534 606h-187v-223h123v-111h-123v-272h-130v272h-121v111h121v223h-187v118h504v-118z" />
    <glyph glyph-name="tbar" unicode="&#x167;" horiz-adv-x="392" 
d="M369 413h-129v-89h125v-94h-125v-230h-127v230h-61v94h61v89h-109l206 254h30v-152h129v-102z" />
    <glyph glyph-name="Utilde" unicode="&#x168;" horiz-adv-x="715" 
d="M431 770q-31 0 -71.5 29t-54.5 29q-33 0 -59 -56l-65 44q30 58 55.5 81.5t59.5 23.5q31 0 71.5 -29.5t54.5 -29.5q32 0 59 57l65 -53q-30 -53 -55.5 -74.5t-59.5 -21.5zM358 -12q-136 0 -212.5 90.5t-76.5 229.5v417h130v-406q0 -94 40.5 -151.5t118.5 -57.5
q77 0 117.5 57.5t40.5 151.5v406h130v-417q0 -139 -76 -229.5t-212 -90.5z" />
    <glyph glyph-name="utilde" unicode="&#x169;" horiz-adv-x="580" 
d="M365 582q-31 0 -71.5 29t-54.5 29q-33 0 -59 -56l-65 44q30 58 55.5 81.5t59.5 23.5q31 0 71.5 -29.5t54.5 -29.5q32 0 59 57l65 -53q-30 -53 -55.5 -74.5t-59.5 -21.5zM290 -12q-109 0 -171 66.5t-62 157.5v303h127v-289q0 -53 26.5 -89t79.5 -36t79.5 36t26.5 89v289
h127v-303q0 -91 -62 -157.5t-171 -66.5z" />
    <glyph glyph-name="Umacron" unicode="&#x16a;" horiz-adv-x="715" 
d="M184 872h346v-102h-346v102zM358 -12q-136 0 -212.5 90.5t-76.5 229.5v417h130v-406q0 -94 40.5 -151.5t118.5 -57.5q77 0 117.5 57.5t40.5 151.5v406h130v-417q0 -139 -76 -229.5t-212 -90.5z" />
    <glyph glyph-name="umacron" unicode="&#x16b;" horiz-adv-x="580" 
d="M131 711h346v-102h-346v102zM290 -12q-109 0 -171 66.5t-62 157.5v303h127v-289q0 -53 26.5 -89t79.5 -36t79.5 36t26.5 89v289h127v-303q0 -91 -62 -157.5t-171 -66.5z" />
    <glyph glyph-name="Ubreve" unicode="&#x16c;" horiz-adv-x="715" 
d="M352 770q-67 0 -117.5 45t-55.5 103h89q6 -28 29.5 -49t54.5 -21q32 0 55 21t29 49h90q-6 -58 -57 -103t-117 -45zM358 -12q-136 0 -212.5 90.5t-76.5 229.5v417h130v-406q0 -94 40.5 -151.5t118.5 -57.5q77 0 117.5 57.5t40.5 151.5v406h130v-417q0 -139 -76 -229.5
t-212 -90.5z" />
    <glyph glyph-name="ubreve" unicode="&#x16d;" horiz-adv-x="580" 
d="M293 576q-67 0 -117.5 45t-55.5 103h89q6 -28 29.5 -49t54.5 -21q32 0 55 21t29 49h90q-6 -58 -57 -103t-117 -45zM290 -12q-109 0 -171 66.5t-62 157.5v303h127v-289q0 -53 26.5 -89t79.5 -36t79.5 36t26.5 89v289h127v-303q0 -91 -62 -157.5t-171 -66.5z" />
    <glyph glyph-name="Uring" unicode="&#x16e;" horiz-adv-x="715" 
d="M360 770q-47 0 -81 32t-34 77t34 77t81 32q46 0 80 -32t34 -77t-34 -77t-80 -32zM360 835q19 0 32.5 12.5t13.5 31.5t-13.5 31.5t-32.5 12.5t-32.5 -12.5t-13.5 -31.5t13.5 -31.5t32.5 -12.5zM358 -12q-136 0 -212.5 90.5t-76.5 229.5v417h130v-406q0 -94 40.5 -151.5
t118.5 -57.5q77 0 117.5 57.5t40.5 151.5v406h130v-417q0 -139 -76 -229.5t-212 -90.5z" />
    <glyph glyph-name="uring" unicode="&#x16f;" horiz-adv-x="580" 
d="M299 564q-47 0 -81 32t-34 77t34 77t81 32q46 0 80 -32t34 -77t-34 -77t-80 -32zM299 629q19 0 32.5 12.5t13.5 31.5t-13.5 31.5t-32.5 12.5t-32.5 -12.5t-13.5 -31.5t13.5 -31.5t32.5 -12.5zM290 -12q-109 0 -171 66.5t-62 157.5v303h127v-289q0 -53 26.5 -89t79.5 -36
t79.5 36t26.5 89v289h127v-303q0 -91 -62 -157.5t-171 -66.5z" />
    <glyph glyph-name="Uhungarumlaut" unicode="&#x170;" horiz-adv-x="715" 
d="M312 770h-120l77 154h131zM530 770h-120l77 154h131zM358 -12q-136 0 -212.5 90.5t-76.5 229.5v417h130v-406q0 -94 40.5 -151.5t118.5 -57.5q77 0 117.5 57.5t40.5 151.5v406h130v-417q0 -139 -76 -229.5t-212 -90.5z" />
    <glyph glyph-name="uhungarumlaut" unicode="&#x171;" horiz-adv-x="580" 
d="M251 584h-120l77 154h131zM469 584h-120l77 154h131zM290 -12q-109 0 -171 66.5t-62 157.5v303h127v-289q0 -53 26.5 -89t79.5 -36t79.5 36t26.5 89v289h127v-303q0 -91 -62 -157.5t-171 -66.5z" />
    <glyph glyph-name="Uogonek" unicode="&#x172;" horiz-adv-x="715" 
d="M516 725h130v-417q0 -173 -109 -261l-69 -63q-26 -24 -34.5 -35t-8.5 -24q0 -26 36 -26q29 0 54 18l24 -73q-39 -23 -93 -23q-51 0 -83 27t-32 64q0 40 43 76h-16q-136 0 -212.5 90.5t-76.5 229.5v417h130v-406q0 -94 40.5 -151.5t118.5 -57.5q77 0 117.5 57.5
t40.5 151.5v406z" />
    <glyph glyph-name="uogonek" unicode="&#x173;" horiz-adv-x="580" 
d="M396 515h127v-303q0 -110 -81 -174l-59 -54q-26 -22 -34.5 -34t-8.5 -25q0 -26 36 -26q28 0 54 18l24 -73q-39 -23 -93 -23q-51 0 -83 27t-32 64q0 39 42 76q-109 1 -170 67t-61 157v303h127v-289q0 -53 26.5 -89t79.5 -36t79.5 36t26.5 89v289z" />
    <glyph glyph-name="Wcircumflex" unicode="&#x174;" horiz-adv-x="1048" 
d="M524 830l-51 -49h-131l182 162l182 -162h-131zM902 724h141l-292 -736h-40l-187 478l-187 -478h-40l-292 736h141l175 -449l183 461h40l183 -461z" />
    <glyph glyph-name="wcircumflex" unicode="&#x175;" horiz-adv-x="842" 
d="M421 633l-51 -49h-131l182 162l182 -162h-131zM706 515h138l-245 -515h-30l-148 298l-148 -298h-30l-245 515h138l131 -277l139 277h30l139 -277z" />
    <glyph glyph-name="Ycircumflex" unicode="&#x176;" horiz-adv-x="656" 
d="M328 830l-51 -49h-131l182 162l182 -162h-131zM496 724h152l-255 -493v-231h-130v231l-255 493h152l168 -345z" />
    <glyph glyph-name="ycircumflex" unicode="&#x177;" horiz-adv-x="546" 
d="M272 633l-51 -49h-131l182 162l182 -162h-131zM404 515h135l-263 -735h-127l75 216l-222 519h136l143 -356z" />
    <glyph glyph-name="Ydieresis" unicode="&#x178;" horiz-adv-x="656" 
d="M214 770q-32 0 -55 22.5t-23 54.5t23 55t55 23t55 -23t22 -55t-23.5 -54.5t-53.5 -22.5zM442 770q-32 0 -55 22.5t-23 54.5t23 55t55 23t55 -23t22 -55t-23.5 -54.5t-53.5 -22.5zM263 231l-255 493h152l168 -345l168 345h152l-255 -493v-231h-130v231z" />
    <glyph glyph-name="Zacute" unicode="&#x179;" horiz-adv-x="558" 
d="M343 782h-120l77 154h131zM333 606h-289v118h496l-323 -605l310 -1v-118h-519z" />
    <glyph glyph-name="zacute" unicode="&#x17a;" horiz-adv-x="473" 
d="M279 582h-120l77 154h131zM213 102h238v-102h-436l234 413h-215v102h416z" />
    <glyph glyph-name="Zdotaccent" unicode="&#x17b;" horiz-adv-x="558" 
d="M286 770q-31 0 -54.5 23t-23.5 54t23 54.5t55 23.5q31 0 54.5 -23.5t22.5 -54.5t-23.5 -54t-53.5 -23zM333 606h-289v118h496l-323 -605l310 -1v-118h-519z" />
    <glyph glyph-name="zdotaccent" unicode="&#x17c;" horiz-adv-x="473" 
d="M241 581q-31 0 -54.5 23t-23.5 54q0 32 23.5 55t54.5 23t54.5 -23.5t22.5 -54.5t-23.5 -54t-53.5 -23zM213 102h238v-102h-436l234 413h-215v102h416z" />
    <glyph glyph-name="Zcaron" unicode="&#x17d;" horiz-adv-x="558" 
d="M467 931l-182 -162l-182 162h131l51 -49l51 49h131zM540 724l-323 -605l310 -1v-118h-519l325 606h-289v118h496z" />
    <glyph glyph-name="zcaron" unicode="&#x17e;" horiz-adv-x="473" 
d="M413 738l-182 -162l-182 162h131l51 -49l51 49h131zM213 102h238v-102h-436l234 413h-215v102h416z" />
    <glyph glyph-name="florin" unicode="&#x192;" 
d="M112 437h134l16 123q23 174 181 174q41 0 70 -3v-118q-15 1 -45 1q-35 0 -53.5 -16t-22.5 -53l-14 -108h116v-111h-133l-22 -166q-23 -174 -183 -174q-42 0 -70 3v118q15 -1 45 -1q69 0 77 69l20 151h-116v111z" />
    <glyph glyph-name="Scommaaccent" unicode="&#x218;" horiz-adv-x="552" 
d="M371 558q-40 58 -108 58q-30 0 -50.5 -20t-20.5 -48q0 -50 64 -72l61 -22q203 -74 203 -236q0 -104 -73 -167t-186 -63q-93 0 -156 44.5t-88 102.5l103 75q44 -100 152 -100q53 0 85.5 30t32.5 79q0 78 -107 115l-64 23q-155 55 -156 193q-1 73 58 129.5t142 56.5
q133 0 205 -102zM283 -257h-76v195h141z" />
    <glyph glyph-name="scommaaccent" unicode="&#x219;" horiz-adv-x="440" 
d="M216 -12q-72 0 -122.5 28t-75.5 71l83 83q34 -71 115 -71q29 0 49 15.5t20 41.5q0 42 -65 64l-46 15q-122 40 -122 148q0 59 47 101.5t113 42.5q60 0 104.5 -24t66.5 -60l-83 -72q-33 48 -83 48q-21 0 -33.5 -10.5t-12.5 -25.5q0 -31 47 -47l44 -15q146 -50 146 -165
q0 -72 -54.5 -120t-137.5 -48zM226 -257h-76v195h141z" />
    <glyph glyph-name="uni021A" unicode="&#x21a;" horiz-adv-x="540" 
d="M205 606h-187v118h504v-118h-187v-606h-130v606zM280 -257h-76v195h141z" />
    <glyph glyph-name="uni021B" unicode="&#x21b;" horiz-adv-x="383" 
d="M240 667v-152h129v-102h-129v-413h-127v413h-109l206 254h30zM185 -257h-76v195h141z" />
    <glyph glyph-name="uni0237" unicode="&#x237;" horiz-adv-x="253" 
d="M63 -220v735h127v-735h-127z" />
    <glyph glyph-name="uni02BB" unicode="&#x2bb;" horiz-adv-x="228" 
d="M96 840h80v-286h-147z" />
    <glyph glyph-name="uni02BC" unicode="&#x2bc;" horiz-adv-x="228" 
d="M132 554h-80v286h147z" />
    <glyph glyph-name="circumflex" unicode="&#x2c6;" 
d="M484 584h-131l-51 49l-51 -49h-131l182 162z" />
    <glyph glyph-name="caron" unicode="&#x2c7;" 
d="M356 738h131l-182 -162l-182 162h131l51 -49z" />
    <glyph glyph-name="breve" unicode="&#x2d8;" 
d="M307 574q-67 0 -117.5 45t-55.5 103h89q6 -28 29.5 -49t54.5 -21q32 0 55 21t29 49h90q-6 -58 -57 -103t-117 -45z" />
    <glyph glyph-name="dotaccent" unicode="&#x2d9;" 
d="M300 590q-31 0 -54.5 23t-23.5 54t23 54.5t55 23.5q31 0 54.5 -23.5t22.5 -54.5t-23.5 -54t-53.5 -23z" />
    <glyph glyph-name="ring" unicode="&#x2da;" 
d="M307 561q-47 0 -81 32t-34 77t34 77t81 32q46 0 80 -32t34 -77t-34 -77t-80 -32zM307 626q19 0 32.5 12.5t13.5 31.5t-13.5 31.5t-32.5 12.5t-32.5 -12.5t-13.5 -31.5t13.5 -31.5t32.5 -12.5z" />
    <glyph glyph-name="ogonek" unicode="&#x2db;" 
d="M309 -179q-49 0 -80.5 27t-31.5 64q0 53 53 88l54 35l83 -35l-42 -19q-54 -24 -54 -54q0 -28 33 -28q28 0 54 18l24 -73q-39 -23 -93 -23z" />
    <glyph glyph-name="tilde" unicode="&#x2dc;" 
d="M349 581q-31 0 -71.5 29t-54.5 29q-33 0 -59 -56l-65 44q30 58 55.5 81.5t59.5 23.5q31 0 71.5 -29.5t54.5 -29.5q32 0 59 57l65 -53q-30 -53 -55.5 -74.5t-59.5 -21.5z" />
    <glyph glyph-name="hungarumlaut" unicode="&#x2dd;" 
d="M213 584h-120l77 154h131zM431 584h-120l77 154h131z" />
    <glyph glyph-name="uni0326" unicode="&#x326;" horiz-adv-x="0" 
d="M-285 -254h-78v191h144z" />
    <glyph glyph-name="uni037E" unicode="&#x37e;" horiz-adv-x="287" 
d="M146 350q-36 0 -62.5 26.5t-26.5 61.5q0 36 26.5 62.5t62.5 26.5t62.5 -26.5t25.5 -62.5q-1 -35 -27 -61.5t-61 -26.5zM220 128l-67 -271h-82v291h149v-20z" />
    <glyph glyph-name="tonos" unicode="&#x384;" 
d="M311 600h-114l62 169h131z" />
    <glyph glyph-name="dieresistonos" unicode="&#x385;" 
d="M341 770h120l-64 -176h-104zM209 585q-29 0 -49.5 20.5t-20.5 49.5t20.5 49.5t49.5 20.5t50 -20.5t20 -49.5t-21.5 -49.5t-48.5 -20.5zM523 585q-29 0 -49.5 20.5t-20.5 49.5t20.5 49.5t49.5 20.5t50 -20.5t20 -49.5t-21.5 -49.5t-48.5 -20.5z" />
    <glyph glyph-name="anoteleia" unicode="&#x387;" horiz-adv-x="267" 
d="M134 214q-36 0 -62.5 26.5t-26.5 61.5q0 36 26.5 62.5t62.5 26.5t62.5 -26.5t25.5 -62.5q-1 -35 -27 -61.5t-61 -26.5z" />
    <glyph glyph-name="Pi" unicode="&#x3a0;" horiz-adv-x="737" 
d="M78 724h581v-724h-130v606h-321v-606h-130v724z" />
    <glyph glyph-name="Sigma" unicode="&#x3a3;" horiz-adv-x="557" 
d="M217 369l-187 355h487v-113h-280l117 -242l-138 -256h303v-113h-497z" />
    <glyph glyph-name="uni03BC" unicode="&#x3bc;" horiz-adv-x="586" 
d="M402 515h127v-303q0 -91 -55 -157.5t-154 -66.5q-78 0 -130 54v-261h-127v734h127v-289q0 -53 26.5 -89t79.5 -36t79.5 36t26.5 89v289z" />
    <glyph glyph-name="Wgrave" unicode="&#x1e80;" horiz-adv-x="1048" 
d="M465 770l-88 154h131l77 -154h-120zM504 736h40l183 -461l175 449h141l-292 -736h-40l-187 478l-187 -478h-40l-292 736h141l175 -449z" />
    <glyph glyph-name="wgrave" unicode="&#x1e81;" horiz-adv-x="842" 
d="M375 582l-88 154h131l77 -154h-120zM436 515l139 -277l131 277h138l-245 -515h-30l-148 298l-148 -298h-30l-245 515h138l131 -277l139 277h30z" />
    <glyph glyph-name="Wacute" unicode="&#x1e82;" horiz-adv-x="1048" 
d="M578 782h-120l77 154h131zM504 736h40l183 -461l175 449h141l-292 -736h-40l-187 478l-187 -478h-40l-292 736h141l175 -449z" />
    <glyph glyph-name="wacute" unicode="&#x1e83;" horiz-adv-x="842" 
d="M483 582h-120l77 154h131zM436 515l139 -277l131 277h138l-245 -515h-30l-148 298l-148 -298h-30l-245 515h138l131 -277l139 277h30z" />
    <glyph glyph-name="Wdieresis" unicode="&#x1e84;" horiz-adv-x="1048" 
d="M416 770q-32 0 -55 22.5t-23 54.5t23 55t55 23t55 -23t22 -55t-23.5 -54.5t-53.5 -22.5zM644 770q-32 0 -55 22.5t-23 54.5t23 55t55 23t55 -23t22 -55t-23.5 -54.5t-53.5 -22.5zM504 736h40l183 -461l175 449h141l-292 -736h-40l-187 478l-187 -478h-40l-292 736h141
l175 -449z" />
    <glyph glyph-name="wdieresis" unicode="&#x1e85;" horiz-adv-x="842" 
d="M313 581q-32 0 -55 22.5t-23 54.5t23 55t55 23t55 -23t22 -55t-23.5 -54.5t-53.5 -22.5zM541 581q-32 0 -55 22.5t-23 54.5t23 55t55 23t55 -23t22 -55t-23.5 -54.5t-53.5 -22.5zM436 515l139 -277l131 277h138l-245 -515h-30l-148 298l-148 -298h-30l-245 515h138
l131 -277l139 277h30z" />
    <glyph glyph-name="uni1E9E" unicode="&#x1e9e;" horiz-adv-x="722" 
d="M311 127q43 -17 92 -17q73 0 114 39.5t41 96.5t-46.5 98t-118.5 41q-37 0 -74 -8l76 229h-187v-606h-130v724h495l-92 -249q92 -12 150.5 -70.5t56.5 -158.5q-2 -115 -81.5 -186.5t-203.5 -71.5q-74 0 -133 24z" />
    <glyph glyph-name="Ygrave" unicode="&#x1ef2;" horiz-adv-x="656" 
d="M284 770l-88 154h131l77 -154h-120zM263 231l-255 493h152l168 -345l168 345h152l-255 -493v-231h-130v231z" />
    <glyph glyph-name="ygrave" unicode="&#x1ef3;" horiz-adv-x="546" 
d="M347 582h-120l-88 154h131zM404 515h135l-263 -735h-127l75 216l-222 519h136l143 -356z" />
    <glyph glyph-name="uni2007" unicode="&#x2007;" 
 />
    <glyph glyph-name="uni2008" unicode="&#x2008;" horiz-adv-x="253" 
 />
    <glyph glyph-name="uni2009" unicode="&#x2009;" horiz-adv-x="80" 
 />
    <glyph glyph-name="uni200B" unicode="&#x200b;" horiz-adv-x="0" 
 />
    <glyph glyph-name="uni2010" unicode="&#x2010;" horiz-adv-x="406" 
d="M57 354h292v-102h-292v102z" />
    <glyph glyph-name="uni2011" unicode="&#x2011;" horiz-adv-x="406" 
d="M57 354h292v-102h-292v102z" />
    <glyph glyph-name="figuredash" unicode="&#x2012;" 
d="M69 354h463v-102h-463v102z" />
    <glyph glyph-name="endash" unicode="&#x2013;" horiz-adv-x="577" 
d="M57 354h463v-102h-463v102z" />
    <glyph glyph-name="emdash" unicode="&#x2014;" horiz-adv-x="865" 
d="M57 354h751v-102h-751v102z" />
    <glyph glyph-name="quoteleft" unicode="&#x2018;" horiz-adv-x="228" 
d="M96 840h80v-286h-147z" />
    <glyph glyph-name="quoteright" unicode="&#x2019;" horiz-adv-x="219" 
d="M132 554h-80v286h147z" />
    <glyph glyph-name="quotesinglbase" unicode="&#x201a;" horiz-adv-x="224" 
d="M130 -231l67 286h-147v-286h80z" />
    <glyph glyph-name="quotedblleft" unicode="&#x201c;" horiz-adv-x="436" 
d="M96 840h80v-286h-147zM304 840h80v-286h-147z" />
    <glyph glyph-name="quotedblright" unicode="&#x201d;" horiz-adv-x="428" 
d="M132 554h-80v286h147zM341 554h-80v286h147z" />
    <glyph glyph-name="quotedblbase" unicode="&#x201e;" horiz-adv-x="433" 
d="M130 -231h-80v286h147zM339 -231h-80v286h147z" />
    <glyph glyph-name="dagger" unicode="&#x2020;" horiz-adv-x="474" 
d="M186 412h-157v103h157v209h103v-209h156v-103h-156v-412h-103v412z" />
    <glyph glyph-name="daggerdbl" unicode="&#x2021;" horiz-adv-x="500" 
d="M199 171h-157v103h157v138h-157v103h157v209h103v-209h156v-103h-156v-138h156v-103h-156v-171h-103v171z" />
    <glyph glyph-name="bullet" unicode="&#x2022;" horiz-adv-x="392" 
d="M196 170q-54 0 -92 38t-38 93q0 54 38 92t92 38t92 -38t38 -92q0 -55 -38 -93t-92 -38z" />
    <glyph glyph-name="ellipsis" unicode="&#x2026;" horiz-adv-x="745" 
d="M127 -12q-36 0 -62.5 26.5t-26.5 61.5q0 36 26.5 62.5t62.5 26.5q35 0 62 -26.5t26 -62.5q-1 -35 -27 -61.5t-61 -26.5zM373 -12q-36 0 -62.5 26.5t-26.5 61.5q0 36 26.5 62.5t62.5 26.5q35 0 62 -26.5t26 -62.5q-1 -35 -27 -61.5t-61 -26.5zM619 -12q-36 0 -62.5 26.5
t-26.5 61.5q0 36 26.5 62.5t62.5 26.5q35 0 62 -26.5t26 -62.5q-1 -35 -27 -61.5t-61 -26.5z" />
    <glyph glyph-name="perthousand" unicode="&#x2030;" horiz-adv-x="1241" 
d="M209 379q-75 0 -127.5 52t-52.5 126t52.5 126t127.5 52t127.5 -52t52.5 -126t-52.5 -126t-127.5 -52zM563 724h110l-395 -724h-111zM209 471q35 0 60 26t25 60t-25 60t-60 26t-59.5 -26t-24.5 -60t24.5 -60t59.5 -26zM633 -12q-75 0 -127.5 52t-52.5 126t52.5 126
t127.5 52t127.5 -52t52.5 -126t-52.5 -126t-127.5 -52zM1033 -12q-75 0 -127.5 52t-52.5 126t52.5 126t127.5 52t127.5 -52t52.5 -126t-52.5 -126t-127.5 -52zM633 80q35 0 60 26t25 60q0 35 -25 61t-60 26t-59.5 -26t-24.5 -61q0 -34 24.5 -60t59.5 -26zM1033 80
q35 0 60 26t25 60q0 35 -25 61t-60 26t-59.5 -26t-24.5 -61q0 -34 24.5 -60t59.5 -26z" />
    <glyph glyph-name="minute" unicode="&#x2032;" horiz-adv-x="225" 
d="M120 486h-80l39 283h133z" />
    <glyph glyph-name="second" unicode="&#x2033;" horiz-adv-x="416" 
d="M120 487h-80l39 283h133zM311 487h-80l39 283h133z" />
    <glyph glyph-name="guilsinglleft" unicode="&#x2039;" horiz-adv-x="345" 
d="M151 301l166 -214h-120l-170 214l170 214h120z" />
    <glyph glyph-name="guilsinglright" unicode="&#x203a;" horiz-adv-x="345" 
d="M194 301l-166 214h120l170 -214l-170 -214h-120z" />
    <glyph glyph-name="fraction" unicode="&#x2044;" horiz-adv-x="200" 
d="M241 724h96l-375 -724h-97z" />
    <glyph glyph-name="uni20A9" unicode="&#x20a9;" 
d="M608 398h-91l-18 -76h109v-102h-135l-54 -220h-7l-62 220h-100l-62 -220h-7l-54 220h-135v102h109l-18 76h-91v102h65l-55 224h111l47 -224h81l56 224h6l56 -224h81l47 224h111l-55 -224h65v-102zM181 398l16 -76l19 76h-35zM278 322h44l-22 76zM403 322l16 76h-35z" />
    <glyph glyph-name="Euro" unicode="&#x20ac;" 
d="M418 110q71 0 132 46l33 -131q-76 -37 -165 -37q-114 0 -203.5 65t-127.5 171h-79l33 102h24q-2 24 -2 37q0 23 1 34h-56l33 102h45q37 107 127 173t205 66q91 0 171 -39l-43 -127q-63 44 -128 44q-60 0 -109 -32t-79 -85h291l-34 -102h-292q-2 -22 -2 -34q0 -19 3 -37
h267l-35 -102h-197q30 -52 78.5 -83t108.5 -31z" />
    <glyph glyph-name="uni20B9" unicode="&#x20b9;" 
d="M538 634h-131q28 -29 40 -68h91v-89h-87q-13 -71 -69 -113t-139 -45l295 -319h-172l-295 327v86h145q82 0 104 64h-249l30 89h219q-22 63 -104 63h-145l30 95h437v-90z" />
    <glyph glyph-name="uni2113" unicode="&#x2113;" horiz-adv-x="460" 
d="M328 -6q-81 0 -132 43.5t-67 120.5l-101 -52v109l93 51v309q0 93 52 151t123 58q70 0 109.5 -42.5t39.5 -117.5q0 -130 -52 -228.5t-142 -162.5q0 -63 27.5 -97t81.5 -34h64v-102q-44 -6 -96 -6zM250 353q53 55 74 113t21 162q0 63 -47 63q-21 0 -34.5 -20t-13.5 -54
v-264z" />
    <glyph glyph-name="uni2116" unicode="&#x2116;" horiz-adv-x="1130" 
d="M654 -12l-443 471l-1 -459h-130v736h40l443 -470l1 458h130v-736h-40zM926 410q-78 0 -124 50.5t-46 112.5q0 63 46 112.5t124 49.5q79 0 125 -49.5t46 -112.5q0 -62 -46 -112.5t-125 -50.5zM926 499q35 0 56.5 23t21.5 51t-21.5 50.5t-56.5 22.5t-56 -22.5t-21 -50.5
t21 -51t56 -23zM784 359h290v-102h-290v102z" />
    <glyph glyph-name="uni2117" unicode="&#x2117;" horiz-adv-x="894" 
d="M447 -41q-170 0 -290.5 120t-120.5 291q0 113 55 207.5t149.5 149.5t206.5 55t206.5 -55t149.5 -149.5t55 -207.5q0 -171 -120.5 -291t-290.5 -120zM447 52q132 0 222.5 92.5t90.5 225.5q0 134 -90.5 226.5t-222.5 92.5t-223 -92.5t-91 -226.5q0 -133 91 -225.5
t223 -92.5zM299 571h170q72 0 118 -37t46 -105q0 -67 -47 -104t-117 -37h-65v-117h-105v400zM461 373q28 0 46.5 14.5t18.5 42.5q0 27 -18.5 41.5t-46.5 14.5h-57v-113h57z" />
    <glyph glyph-name="trademark" unicode="&#x2122;" horiz-adv-x="751" 
d="M350 777l167 -126l166 126v-309h-79v153l-87 -66l-88 69v-156h-79v309zM129 698h-97v72h273v-72h-97v-230h-79v230z" />
    <glyph glyph-name="estimated" unicode="&#x212e;" horiz-adv-x="801" 
d="M424 -14q-167 0 -274.5 104t-107.5 271q0 165 105 269.5t258 104.5t258 -104.5t105 -269.5v-19h-577v-239q91 -80 233 -80q86 0 158.5 38t116.5 105l30 -23q-49 -74 -129.5 -115.5t-175.5 -41.5zM405 698q-123 0 -214 -78v-241h433v237q-93 82 -219 82z" />
    <glyph glyph-name="uni2150" unicode="&#x2150;" horiz-adv-x="741" 
d="M25 553l172 178v-424h-89v246h-83zM476 724h96l-375 -724h-97zM592 323h-144v79h267l-150 -402h-96z" />
    <glyph glyph-name="uni2151" unicode="&#x2151;" horiz-adv-x="765" 
d="M25 553l172 178v-424h-89v246h-83zM473 724h96l-375 -724h-97zM570 408q72 0 117.5 -42.5t45.5 -109.5q0 -51 -50 -132l-78 -123l-101 -1l75 112q-9 -3 -26 -3q-62 0 -104 42.5t-42 104.5q0 64 47 108t116 44zM570 186q31 0 52.5 21t21.5 51q0 29 -21.5 49.5t-52.5 20.5
t-53 -20.5t-22 -49.5q0 -30 22 -51t53 -21z" />
    <glyph glyph-name="uni2152" unicode="&#x2152;" horiz-adv-x="999" 
d="M25 553l172 178v-424h-89v246h-83zM474 724h96l-375 -724h-97zM382 246l172 178v-424h-89v246h-83zM787 -7q-79 0 -129.5 58.5t-50.5 149.5t50.5 149t129.5 58t129 -58t50 -149t-50 -149.5t-129 -58.5zM787 73q40 0 65.5 36t25.5 92q0 55 -25.5 91t-65.5 36t-65.5 -36
t-25.5 -91q0 -56 25.5 -92t65.5 -36z" />
    <glyph glyph-name="uni2153" unicode="&#x2153;" horiz-adv-x="752" 
d="M24 553l172 178v-424h-89v246h-83zM471 724h96l-375 -724h-97zM449 112q40 -40 94 -40q36 0 58 18.5t22 47.5q0 30 -24 49t-62 19q-42 0 -68 -4l85 121h-111v77h258l-99 -133q51 -11 80.5 -43.5t29.5 -85.5q0 -62 -49 -104t-120 -42q-88 0 -146 58z" />
    <glyph glyph-name="uni2154" unicode="&#x2154;" horiz-adv-x="852" 
d="M576 724h96l-375 -724h-97zM31 308l145 178q3 3 15 18t17.5 22t13.5 19.5t11.5 22.5t3.5 19q0 23 -16.5 36.5t-44.5 13.5q-47 0 -74 -42l-62 48q20 33 57.5 53.5t78.5 20.5q68 0 109 -34t41 -91q0 -9 -2 -18.5t-4.5 -18t-7 -18.5t-8.5 -17t-10.5 -17t-10.5 -15.5
t-11.5 -15.5t-10.5 -13.5t-10 -12t-8 -9.5l-43 -51h120v-78h-289zM707 267q51 -11 80.5 -43.5t29.5 -85.5q0 -62 -49 -104t-120 -42q-88 0 -146 58l52 62q40 -40 94 -40q36 0 58 18.5t22 47.5q0 30 -24 49t-62 19q-42 0 -68 -4l85 121h-111v77h258z" />
    <glyph glyph-name="uni2155" unicode="&#x2155;" horiz-adv-x="735" 
d="M25 553l172 178v-424h-89v246h-83zM476 724h96l-375 -724h-97zM437 109q39 -37 93 -37q36 0 58.5 18.5t22.5 47.5q0 26 -23 42t-61 16q-51 0 -103 -8l34 212h194v-77h-132l-9 -49q10 2 30 2q73 0 116 -37t43 -101q0 -61 -49.5 -103.5t-120.5 -42.5q-90 0 -146 58v8z" />
    <glyph glyph-name="uni2156" unicode="&#x2156;" horiz-adv-x="837" 
d="M588 724h96l-375 -724h-97zM32 308l145 178q3 3 15 18t17.5 22t13.5 19.5t11.5 22.5t3.5 19q0 23 -16.5 36.5t-44.5 13.5q-47 0 -74 -42l-62 48q20 33 57.5 53.5t78.5 20.5q68 0 109 -34t41 -91q0 -9 -2 -18.5t-4.5 -18t-7 -18.5t-8.5 -17t-10.5 -17t-10.5 -15.5
t-11.5 -15.5t-10.5 -13.5t-10 -12t-8 -9.5l-43 -51h120v-78h-289zM648 276q73 0 116 -37t43 -101q0 -61 -49.5 -103.5t-120.5 -42.5q-90 0 -146 58v8l53 51q39 -37 93 -37q36 0 58.5 18.5t22.5 47.5q0 26 -23 42t-61 16q-51 0 -103 -8l34 212h194v-77h-132l-9 -49q10 2 30 2
z" />
    <glyph glyph-name="uni2157" unicode="&#x2157;" horiz-adv-x="812" 
d="M552 724h96l-375 -724h-97zM79 419q40 -40 94 -40q36 0 58 18.5t22 47.5q0 30 -24 49t-62 19q-42 0 -68 -4l85 121h-111v77h258l-99 -133q51 -11 80.5 -43.5t29.5 -85.5q0 -62 -49 -104t-120 -42q-88 0 -146 58zM515 109q39 -37 93 -37q36 0 58.5 18.5t22.5 47.5
q0 26 -23 42t-61 16q-51 0 -103 -8l34 212h194v-77h-132l-9 -49q10 2 30 2q73 0 116 -37t43 -101q0 -61 -49.5 -103.5t-120.5 -42.5q-90 0 -146 58v8z" />
    <glyph glyph-name="uni2158" unicode="&#x2158;" horiz-adv-x="841" 
d="M319 730v-285h54v-77h-54v-60h-88v60h-208zM584 724h96l-375 -724h-97zM240 426v111l-88 -111h88zM536 109q39 -37 93 -37q36 0 58.5 18.5t22.5 47.5q0 26 -23 42t-61 16q-51 0 -103 -8l34 212h194v-77h-132l-9 -49q10 2 30 2q73 0 116 -37t43 -101q0 -61 -49.5 -103.5
t-120.5 -42.5q-90 0 -146 58v8z" />
    <glyph glyph-name="uni2159" unicode="&#x2159;" horiz-adv-x="720" 
d="M25 553l172 178v-424h-89v246h-83zM473 724h96l-375 -724h-97zM526 -8q-72 0 -117.5 42t-45.5 109q0 51 50 132l78 124l101 1l-75 -113q9 3 26 3q62 0 104 -42.5t42 -104.5q0 -64 -46.5 -107.5t-116.5 -43.5zM526 213q-31 0 -52.5 -21t-21.5 -51q0 -29 21.5 -49t52.5 -20
t53 20t22 49q0 30 -22 51t-53 21z" />
    <glyph glyph-name="uni215A" unicode="&#x215a;" horiz-adv-x="803" 
d="M562 724h96l-375 -724h-97zM81 417q39 -37 93 -37q36 0 58.5 18.5t22.5 47.5q0 26 -23 42t-61 16q-51 0 -103 -8l34 212h194v-77h-132l-9 -49q10 2 30 2q73 0 116 -37t43 -101q0 -61 -49.5 -103.5t-120.5 -42.5q-90 0 -146 58v8zM610 -8q-72 0 -117.5 42t-45.5 109
q0 51 50 132l78 124l101 1l-75 -113q9 3 26 3q62 0 104 -42.5t42 -104.5q0 -64 -46.5 -107.5t-116.5 -43.5zM610 213q-31 0 -52.5 -21t-21.5 -51q0 -29 21.5 -49t52.5 -20t53 20t22 49q0 30 -22 51t-53 21z" />
    <glyph glyph-name="oneeighth" unicode="&#x215b;" horiz-adv-x="739" 
d="M108 307v246h-83l172 178v-424h-89zM465 711h96l-375 -724h-97zM635 239q72 -39 72 -104q0 -60 -47 -101.5t-113 -41.5q-70 0 -115.5 40t-45.5 103q0 67 70 105q-27 25 -27 63q0 46 33.5 76t84.5 30q50 0 83.5 -30t33.5 -76q0 -37 -29 -64zM547 345q-19 0 -31.5 -11.5
t-12.5 -29.5t12.5 -29.5t31.5 -11.5q18 0 30.5 11.5t12.5 29.5t-12.5 29.5t-30.5 11.5zM547 72q29 0 50 18.5t21 44.5t-20.5 45t-50.5 19q-31 0 -51.5 -18.5t-20.5 -45.5q0 -26 21 -44.5t51 -18.5z" />
    <glyph glyph-name="threeeighths" unicode="&#x215c;" horiz-adv-x="809" 
d="M553 724h96l-375 -724h-97zM342 445q0 -62 -49 -104t-120 -42q-88 0 -146 58l52 62q40 -40 94 -40q36 0 58 18.5t22 47.5q0 30 -24 49t-62 19q-42 0 -68 -4l85 121h-111v77h258l-99 -133q51 -11 80.5 -43.5t29.5 -85.5zM706 239q72 -39 72 -104q0 -60 -47 -101.5
t-113 -41.5q-70 0 -115.5 40t-45.5 103q0 67 70 105q-27 25 -27 63q0 46 33.5 76t84.5 30q50 0 83.5 -30t33.5 -76q0 -37 -29 -64zM618 345q-19 0 -31.5 -11.5t-12.5 -29.5t12.5 -29.5t31.5 -11.5q18 0 30.5 11.5t12.5 29.5t-12.5 29.5t-30.5 11.5zM618 72q29 0 50 18.5
t21 44.5t-20.5 45t-50.5 19q-31 0 -51.5 -18.5t-20.5 -45.5q0 -26 21 -44.5t51 -18.5z" />
    <glyph glyph-name="fiveeighths" unicode="&#x215d;" horiz-adv-x="814" 
d="M562 724h96l-375 -724h-97zM344 446q0 -61 -49.5 -103.5t-120.5 -42.5q-90 0 -146 58v8l53 51q39 -37 93 -37q36 0 58.5 18.5t22.5 47.5q0 26 -23 42t-61 16q-51 0 -103 -8l34 212h194v-77h-132l-9 -49q10 2 30 2q73 0 116 -37t43 -101zM711 239q72 -39 72 -104
q0 -60 -47 -101.5t-113 -41.5q-70 0 -115.5 40t-45.5 103q0 67 70 105q-27 25 -27 63q0 46 33.5 76t84.5 30q50 0 83.5 -30t33.5 -76q0 -37 -29 -64zM623 345q-19 0 -31.5 -11.5t-12.5 -29.5t12.5 -29.5t31.5 -11.5q18 0 30.5 11.5t12.5 29.5t-12.5 29.5t-30.5 11.5zM623 72
q29 0 50 18.5t21 44.5t-20.5 45t-50.5 19q-31 0 -51.5 -18.5t-20.5 -45.5q0 -26 21 -44.5t51 -18.5z" />
    <glyph glyph-name="seveneighths" unicode="&#x215e;" horiz-adv-x="719" 
d="M459 724h96l-375 -724h-97zM156 307h-96l123 323h-144v79h267zM618 239q72 -39 72 -104q0 -60 -47 -101.5t-113 -41.5q-70 0 -115.5 40t-45.5 103q0 67 70 105q-27 25 -27 63q0 46 33.5 76t84.5 30q50 0 83.5 -30t33.5 -76q0 -37 -29 -64zM530 345q-19 0 -31.5 -11.5
t-12.5 -29.5t12.5 -29.5t31.5 -11.5q18 0 30.5 11.5t12.5 29.5t-12.5 29.5t-30.5 11.5zM530 72q29 0 50 18.5t21 44.5t-20.5 45t-50.5 19q-31 0 -51.5 -18.5t-20.5 -45.5q0 -26 21 -44.5t51 -18.5z" />
    <glyph glyph-name="uni2189" unicode="&#x2189;" horiz-adv-x="871" 
d="M593 724h96l-375 -724h-97zM210 300q-79 0 -129.5 58.5t-50.5 149.5t50.5 149t129.5 58t129 -58t50 -149t-50 -149.5t-129 -58.5zM210 380q40 0 65.5 36t25.5 92q0 55 -25.5 91t-65.5 36t-65.5 -36t-25.5 -91q0 -56 25.5 -92t65.5 -36zM572 112q40 -40 94 -40
q36 0 58 18.5t22 47.5q0 30 -24 49t-62 19q-42 0 -68 -4l85 121h-111v77h258l-99 -133q51 -11 80.5 -43.5t29.5 -85.5q0 -62 -49 -104t-120 -42q-88 0 -146 58z" />
    <glyph glyph-name="arrowleft" unicode="&#x2190;" 
d="M591 344v-96h-406l159 -159l-64 -65l-271 272l271 272l64 -65l-160 -160z" />
    <glyph glyph-name="arrowup" unicode="&#x2191;" 
d="M572 311l-65 -64l-160 160l1 -407h-96v406l-159 -159l-65 64l272 271z" />
    <glyph glyph-name="arrowright" unicode="&#x2192;" 
d="M320 568l271 -272l-271 -272l-64 65l159 159h-406v96l407 -1l-160 160z" />
    <glyph glyph-name="arrowdown" unicode="&#x2193;" 
d="M507 323l65 -64l-272 -271l-272 271l65 64l159 -159v406h96l-1 -407z" />
    <glyph glyph-name="uni2196" unicode="&#x2196;" 
d="M523 138l-68 -68l-287 287v-225l-91 -1v384l384 1v-91h-227z" />
    <glyph glyph-name="uni2197" unicode="&#x2197;" 
d="M139 516l384 -1v-384l-91 1v225l-287 -287l-68 68l289 287h-227v91z" />
    <glyph glyph-name="uni2198" unicode="&#x2198;" 
d="M433 453l91 1v-384l-384 -1v91h227l-289 287l68 68l287 -287v225z" />
    <glyph glyph-name="uni2199" unicode="&#x2199;" 
d="M522 447l-289 -287h227v-91l-384 1v384l91 -1v-225l287 287z" />
    <glyph glyph-name="partialdiff" unicode="&#x2202;" horiz-adv-x="601" 
d="M73 668q72 67 191 67q132 0 213 -106.5t81 -294.5q0 -154 -71.5 -249.5t-202.5 -95.5q-104 0 -179 75t-75 181q0 107 67 178t163 71q100 0 162 -79q-3 93 -46 145.5t-112 52.5q-64 0 -107 -37zM287 111q55 0 90 37.5t35 93.5q0 55 -35 92.5t-90 37.5t-90.5 -37.5
t-35.5 -92.5q0 -56 35.5 -93.5t90.5 -37.5z" />
    <glyph glyph-name="product" unicode="&#x220f;" horiz-adv-x="715" 
d="M78 724h559v-897h-130v783h-299v-783h-130v897z" />
    <glyph glyph-name="summation" unicode="&#x2211;" horiz-adv-x="576" 
d="M257 279l-230 445h505v-114h-305l168 -331l-168 -339h307v-113h-507z" />
    <glyph glyph-name="minus" unicode="&#x2212;" 
d="M60 354h479v-102h-479v102z" />
    <glyph glyph-name="radical" unicode="&#x221a;" horiz-adv-x="542" 
d="M-12 398h140l95 -261l206 587h137l-338 -884z" />
    <glyph glyph-name="infinity" unicode="&#x221e;" horiz-adv-x="789" 
d="M218 109q-75 0 -125.5 55.5t-50.5 137.5t50.5 137.5t125.5 55.5q94 0 176 -112q43 57 84.5 84.5t92.5 27.5q75 0 125.5 -55.5t50.5 -137.5t-50.5 -137.5t-125.5 -55.5q-51 0 -93 27t-84 85q-81 -112 -176 -112zM228 211q51 0 108 91q-57 91 -108 91q-32 0 -56 -26.5
t-24 -64.5t24 -64.5t56 -26.5zM562 211q32 0 56 26.5t24 64.5t-24 64.5t-56 26.5q-51 0 -108 -91q57 -91 108 -91z" />
    <glyph glyph-name="integral" unicode="&#x222b;" horiz-adv-x="435" 
d="M63 -186q-41 0 -70 3v118q15 -1 45 -1q34 0 52 16.5t23 52.5l80 558q25 174 179 174q43 0 70 -3v-118q-15 1 -44 1q-34 0 -51.5 -16t-22.5 -53l-81 -558q-25 -174 -180 -174z" />
    <glyph glyph-name="approxequal" unicode="&#x2248;" 
d="M417 342q-44 0 -121 24t-108 24q-56 0 -124 -42h-3v110q61 41 123 41q45 0 121.5 -23.5t107.5 -23.5q56 0 124 42h3v-110q-60 -42 -123 -42zM417 109q-44 0 -121 24t-108 24q-56 0 -124 -42h-3v110q61 41 123 41q45 0 121.5 -23.5t107.5 -23.5q56 0 124 42h3v-110
q-60 -42 -123 -42z" />
    <glyph glyph-name="notequal" unicode="&#x2260;" 
d="M539 376h-156l-70 -147h226v-102h-275l-56 -117l-99 -1l56 118h-105v102h154l71 147h-225v102h274l56 118h98l-56 -118h107v-102z" />
    <glyph glyph-name="lessequal" unicode="&#x2264;" 
d="M274 416l258 -103v-115l-499 218l499 218v-115zM53 154h479v-102h-479v102z" />
    <glyph glyph-name="greaterequal" unicode="&#x2265;" 
d="M326 416l-258 103v115l499 -218l-499 -218v115zM547 154v-102h-479v102h479z" />
    <glyph glyph-name="lozenge" unicode="&#x25ca;" horiz-adv-x="603" 
d="M23 331l279 406l278 -406l-278 -406zM167 331l135 -201l136 200l-136 202z" />
    <glyph glyph-name="circle" unicode="&#x25cb;" 
d="M85 340q0 92 61.5 153.5t153.5 61.5t153.5 -61.5t61.5 -153.5t-61.5 -153.5t-153.5 -61.5t-153.5 61.5t-61.5 153.5zM186 340q0 -52 32 -85.5t82 -33.5q49 0 81 33.5t32 85.5t-32 85.5t-81 33.5q-50 0 -82 -33.5t-32 -85.5z" />
    <glyph glyph-name="uni25CF" unicode="&#x25cf;" 
d="M85 340q0 92 61.5 153.5t153.5 61.5t153.5 -61.5t61.5 -153.5t-61.5 -153.5t-153.5 -61.5t-153.5 61.5t-61.5 153.5z" />
    <glyph glyph-name="uniEA00" unicode="&#xea00;" horiz-adv-x="896" 
d="M390 909q79 -47 122 -104t48 -108.5t-9.5 -95.5t-45.5 -74q-27 -27 -26.5 -59t30.5 -50q39 -23 78.5 4.5t35.5 76.5q-14 158 116 169q-22 -41 -22 -74.5t15.5 -60.5t34 -54t34 -67.5t15.5 -87.5q0 -58 -16 -108.5t-42 -84.5t-57 -61.5t-62.5 -43t-57.5 -26.5t-42 -14
l-16 -4q67 34 69 112q1 56 -38.5 89.5t-100.5 12.5q-67 -22 -107 31.5t-12 144.5q-70 -62 -90 -145t10.5 -154.5t97.5 -106.5q-92 21 -154 65t-87.5 96.5t-29.5 111t11 109.5t43 90q25 35 60 67.5t65 55.5t61.5 48.5t52.5 52.5t33.5 61t8.5 81t-26 105z" />
    <glyph glyph-name="uniFEFF" unicode="&#xfeff;" horiz-adv-x="0" 
 />
    <glyph glyph-name="zero.tf" 
d="M300 -12q-123 0 -199 100.5t-76 262.5q0 161 76 261.5t199 100.5t199 -100.5t76 -261.5q0 -162 -76 -262.5t-199 -100.5zM300 110q68 0 106.5 66.5t38.5 174.5q0 107 -38.5 173.5t-106.5 66.5t-106.5 -66.5t-38.5 -173.5q0 -108 38.5 -174.5t106.5 -66.5z" />
    <glyph glyph-name="one.tf" 
d="M378 114h159v-114h-456v114h166v329h-153l244 258h40v-587z" />
    <glyph glyph-name="two.tf" 
d="M62 591q26 49 85.5 86.5t132.5 37.5q107 0 176 -56t69 -159q0 -37 -14 -76.5t-43 -82.5t-42 -60t-42 -52l-92 -111h234v-118h-480v21l238 281q1 2 14.5 17.5t17 20t15.5 19.5t17 22t14.5 21t13.5 23.5t9.5 22t7.5 23.5t2 21q0 48 -33 74.5t-82 26.5q-84 0 -134 -81z" />
    <glyph glyph-name="three.tf" 
d="M276 -12q-161 0 -254 115l76 94q23 -26 41 -42t55 -30.5t82 -14.5q69 0 107.5 38t38.5 92q0 57 -43 95t-113 38q-49 0 -93 -8v21l142 197h-209v118h406v-21l-159 -219q90 -12 144.5 -66.5t54.5 -154.5q0 -108 -80 -180t-196 -72z" />
    <glyph glyph-name="four.tf" 
d="M-6 139l465 561h21v-465h102v-117h-102v-118h-130v118h-356v21zM359 221v202l-166 -202h166z" />
    <glyph glyph-name="five.tf" 
d="M558 240q0 -108 -81 -180t-197 -72q-161 0 -254 115l76 91q22 -25 41 -41t55.5 -29.5t81.5 -13.5q69 0 108.5 38.5t39.5 91.5q0 54 -45 84.5t-109 30.5q-55 0 -162 -24l-18 13l63 357h330v-118h-234l-20 -113q40 7 66 7q113 0 186 -60.5t73 -176.5z" />
    <glyph glyph-name="six.tf" 
d="M308 -12q-122 0 -194.5 74.5t-72.5 186.5q0 96 82 232l134 220h145l-134 -215q25 17 69 17q102 0 170 -73.5t68 -180.5q0 -109 -75.5 -185t-191.5 -76zM308 385q-59 0 -98 -42t-39 -98q0 -54 39 -94.5t98 -40.5t98 40.5t39 94.5q0 56 -38.5 98t-98.5 42z" />
    <glyph glyph-name="seven.tf" 
d="M132 3l238 579h-316v118h498v-30l-274 -670h-146v3z" />
    <glyph glyph-name="eight.tf" 
d="M437 430q57 -31 91 -82t34 -112q0 -104 -77 -177t-185 -73q-115 0 -188.5 71.5t-73.5 178.5q0 63 32.5 114.5t89.5 80.5q-46 43 -46 107q0 77 52 127t134 50q80 0 133 -50.5t53 -126.5q0 -66 -49 -108zM300 611q-30 0 -51.5 -21.5t-21.5 -51.5t21.5 -51t51.5 -21t51.5 21
t21.5 51t-21.5 51.5t-51.5 21.5zM300 108q54 0 93 36.5t39 88.5q0 53 -39 89.5t-93 36.5t-93 -36.5t-39 -89.5q0 -52 39 -88.5t93 -36.5z" />
    <glyph glyph-name="nine.tf" 
d="M292 713q122 0 194.5 -74.5t72.5 -186.5q0 -96 -82 -232l-134 -220h-145l134 215q-25 -17 -69 -17q-102 0 -170 73.5t-68 180.5q0 109 75.5 185t191.5 76zM292 316q59 0 98 42t39 98q0 54 -39 94.5t-98 40.5t-98 -40.5t-39 -94.5q0 -56 38.5 -98t98.5 -42z" />
    <glyph glyph-name="zero.subs" horiz-adv-x="419" 
d="M210 -183q-79 0 -129.5 58.5t-50.5 149.5t50.5 149t129.5 58t129 -58t50 -149t-50 -149.5t-129 -58.5zM210 -103q40 0 65.5 36t25.5 92q0 55 -25.5 91t-65.5 36t-65.5 -36t-25.5 -91q0 -56 25.5 -92t65.5 -36z" />
    <glyph glyph-name="one.subs" horiz-adv-x="228" 
d="M5 71l172 178v-424h-89v246h-83z" />
    <glyph glyph-name="two.subs" horiz-adv-x="343" 
d="M227 -46l-43 -51h120v-78h-289l145 178q3 3 15 18t17.5 22t13.5 19.5t11.5 22.5t3.5 19q0 23 -16.5 36.5t-44.5 13.5q-47 0 -74 -42l-62 48q20 33 57.5 53.5t78.5 20.5q68 0 109 -34t41 -91q0 -9 -2 -18.5t-4.5 -18t-7 -18.5t-8.5 -17t-10.5 -17t-10.5 -15.5t-11.5 -15.5
t-10.5 -13.5t-10 -12t-8 -9.5z" />
    <glyph glyph-name="three.subs" horiz-adv-x="357" 
d="M66 -63q40 -40 94 -40q36 0 58 18.5t22 47.5q0 30 -24 49t-62 19q-42 0 -68 -4l85 121h-111v77h258l-99 -133q51 -11 80.5 -43.5t29.5 -85.5q0 -62 -49 -104t-120 -42q-88 0 -146 58z" />
    <glyph glyph-name="four.subs" horiz-adv-x="383" 
d="M304 246v-285h54v-77h-54v-60h-88v60h-208zM225 -58v111l-88 -111h88z" />
    <glyph glyph-name="five.subs" horiz-adv-x="354" 
d="M68 -66q39 -37 93 -37q36 0 58.5 18.5t22.5 47.5q0 26 -23 42t-61 16q-51 0 -103 -8l34 212h194v-77h-132l-9 -49q10 2 30 2q73 0 116 -37t43 -101q0 -61 -49.5 -103.5t-120.5 -42.5q-90 0 -146 58v8z" />
    <glyph glyph-name="six.subs" horiz-adv-x="374" 
d="M191 -183q-72 0 -117.5 42t-45.5 109q0 51 50 132l78 124l101 1l-75 -113q9 3 26 3q62 0 104 -42.5t42 -104.5q0 -64 -46.5 -107.5t-116.5 -43.5zM191 38q-31 0 -52.5 -21t-21.5 -51q0 -29 21.5 -49t52.5 -20t53 20t22 49q0 30 -22 51t-53 21z" />
    <glyph glyph-name="seven.subs" horiz-adv-x="303" 
d="M168 148h-144v79h267l-150 -402h-96z" />
    <glyph glyph-name="eight.subs" horiz-adv-x="375" 
d="M276 62q72 -39 72 -104q0 -60 -47 -101.5t-113 -41.5q-70 0 -115.5 40t-45.5 103q0 67 70 105q-27 25 -27 63q0 46 33.5 76t84.5 30q50 0 83.5 -30t33.5 -76q0 -37 -29 -64zM188 168q-19 0 -31.5 -11.5t-12.5 -29.5t12.5 -29.5t31.5 -11.5q18 0 30.5 11.5t12.5 29.5
t-12.5 29.5t-30.5 11.5zM188 -105q29 0 50 18.5t21 44.5t-20.5 45t-50.5 19q-31 0 -51.5 -18.5t-20.5 -45.5q0 -26 21 -44.5t51 -18.5z" />
    <glyph glyph-name="nine.subs" horiz-adv-x="374" 
d="M183 230q72 0 117.5 -42.5t45.5 -109.5q0 -51 -50 -132l-78 -123l-101 -1l75 112q-9 -3 -26 -3q-62 0 -104 42.5t-42 104.5q0 64 47 108t116 44zM183 8q31 0 52.5 21t21.5 51q0 29 -21.5 49.5t-52.5 20.5t-53 -20.5t-22 -49.5q0 -30 22 -51t53 -21z" />
    <glyph glyph-name="zero.dnom" horiz-adv-x="420" 
d="M210 -7q-79 0 -129.5 58.5t-50.5 149.5t50.5 149t129.5 58t129 -58t50 -149t-50 -149.5t-129 -58.5zM210 73q40 0 65.5 36t25.5 92q0 55 -25.5 91t-65.5 36t-65.5 -36t-25.5 -91q0 -56 25.5 -92t65.5 -36z" />
    <glyph glyph-name="one.dnom" horiz-adv-x="227" 
d="M4 246l172 178v-424h-89v246h-83z" />
    <glyph glyph-name="two.dnom" horiz-adv-x="343" 
d="M227 129l-43 -51h120v-78h-289l145 178q3 3 15 18t17.5 22t13.5 19.5t11.5 22.5t3.5 19q0 23 -16.5 36.5t-44.5 13.5q-47 0 -74 -42l-62 48q20 33 57.5 53.5t78.5 20.5q68 0 109 -34t41 -91q0 -9 -2 -18.5t-4.5 -18t-7 -18.5t-8.5 -17t-10.5 -17t-10.5 -15.5t-11.5 -15.5
t-10.5 -13.5t-10 -12t-8 -9.5z" />
    <glyph glyph-name="three.dnom" horiz-adv-x="356" 
d="M65 112q40 -40 94 -40q36 0 58 18.5t22 47.5q0 30 -24 49t-62 19q-42 0 -68 -4l85 121h-111v77h258l-99 -133q51 -11 80.5 -43.5t29.5 -85.5q0 -62 -49 -104t-120 -42q-88 0 -146 58z" />
    <glyph glyph-name="four.dnom" horiz-adv-x="383" 
d="M304 422v-285h54v-77h-54v-60h-88v60h-208zM225 118v111l-88 -111h88z" />
    <glyph glyph-name="five.dnom" horiz-adv-x="353" 
d="M68 109q39 -37 93 -37q36 0 58.5 18.5t22.5 47.5q0 26 -23 42t-61 16q-51 0 -103 -8l34 212h194v-77h-132l-9 -49q10 2 30 2q73 0 116 -37t43 -101q0 -61 -49.5 -103.5t-120.5 -42.5q-90 0 -146 58v8z" />
    <glyph glyph-name="six.dnom" horiz-adv-x="374" 
d="M191 -8q-72 0 -117.5 42t-45.5 109q0 51 50 132l78 124l101 1l-75 -113q9 3 26 3q62 0 104 -42.5t42 -104.5q0 -64 -46.5 -107.5t-116.5 -43.5zM191 213q-31 0 -52.5 -21t-21.5 -51q0 -29 21.5 -49t52.5 -20t53 20t22 49q0 30 -22 51t-53 21z" />
    <glyph glyph-name="seven.dnom" horiz-adv-x="304" 
d="M168 323h-144v79h267l-150 -402h-96z" />
    <glyph glyph-name="eight.dnom" horiz-adv-x="375" 
d="M276 239q72 -39 72 -104q0 -60 -47 -101.5t-113 -41.5q-70 0 -115.5 40t-45.5 103q0 67 70 105q-27 25 -27 63q0 46 33.5 76t84.5 30q50 0 83.5 -30t33.5 -76q0 -37 -29 -64zM188 345q-19 0 -31.5 -11.5t-12.5 -29.5t12.5 -29.5t31.5 -11.5q18 0 30.5 11.5t12.5 29.5
t-12.5 29.5t-30.5 11.5zM188 72q29 0 50 18.5t21 44.5t-20.5 45t-50.5 19q-31 0 -51.5 -18.5t-20.5 -45.5q0 -26 21 -44.5t51 -18.5z" />
    <glyph glyph-name="nine.dnom" horiz-adv-x="374" 
d="M183 408q72 0 117.5 -42.5t45.5 -109.5q0 -51 -50 -132l-78 -123l-101 -1l75 112q-9 -3 -26 -3q-62 0 -104 42.5t-42 104.5q0 64 47 108t116 44zM183 186q31 0 52.5 21t21.5 51q0 29 -21.5 49.5t-52.5 20.5t-53 -20.5t-22 -49.5q0 -30 22 -51t53 -21z" />
    <glyph glyph-name="zero.numr" horiz-adv-x="421" 
d="M211 300q-79 0 -129.5 58.5t-50.5 149.5t50.5 149t129.5 58t129 -58t50 -149t-50 -149.5t-129 -58.5zM211 380q40 0 65.5 36t25.5 92q0 55 -25.5 91t-65.5 36t-65.5 -36t-25.5 -91q0 -56 25.5 -92t65.5 -36z" />
    <glyph glyph-name="one.numr" horiz-adv-x="230" 
d="M7 553l172 178v-424h-89v246h-83z" />
    <glyph glyph-name="two.numr" horiz-adv-x="343" 
d="M227 437l-43 -51h120v-78h-289l145 178q3 3 15 18t17.5 22t13.5 19.5t11.5 22.5t3.5 19q0 23 -16.5 36.5t-44.5 13.5q-47 0 -74 -42l-62 48q20 33 57.5 53.5t78.5 20.5q68 0 109 -34t41 -91q0 -9 -2 -18.5t-4.5 -18t-7 -18.5t-8.5 -17t-10.5 -17t-10.5 -15.5t-11.5 -15.5
t-10.5 -13.5t-10 -12t-8 -9.5z" />
    <glyph glyph-name="three.numr" horiz-adv-x="356" 
d="M65 419q40 -40 94 -40q36 0 58 18.5t22 47.5q0 30 -24 49t-62 19q-42 0 -68 -4l85 121h-111v77h258l-99 -133q51 -11 80.5 -43.5t29.5 -85.5q0 -62 -49 -104t-120 -42q-88 0 -146 58z" />
    <glyph glyph-name="four.numr" horiz-adv-x="380" 
d="M301 730v-285h54v-77h-54v-60h-88v60h-208zM222 426v111l-88 -111h88z" />
    <glyph glyph-name="five.numr" horiz-adv-x="353" 
d="M68 417q39 -37 93 -37q36 0 58.5 18.5t22.5 47.5q0 26 -23 42t-61 16q-51 0 -103 -8l34 212h194v-77h-132l-9 -49q10 2 30 2q73 0 116 -37t43 -101q0 -61 -49.5 -103.5t-120.5 -42.5q-90 0 -146 58v8z" />
    <glyph glyph-name="six.numr" horiz-adv-x="374" 
d="M191 300q-72 0 -117.5 42t-45.5 109q0 51 50 132l78 124l101 1l-75 -113q9 3 26 3q62 0 104 -42.5t42 -104.5q0 -64 -46.5 -107.5t-116.5 -43.5zM191 521q-31 0 -52.5 -21t-21.5 -51q0 -29 21.5 -49t52.5 -20t53 20t22 49q0 30 -22 51t-53 21z" />
    <glyph glyph-name="seven.numr" horiz-adv-x="304" 
d="M167 630h-144v79h267l-150 -402h-96z" />
    <glyph glyph-name="eight.numr" horiz-adv-x="375" 
d="M276 547q72 -39 72 -104q0 -60 -47 -101.5t-113 -41.5q-70 0 -115.5 40t-45.5 103q0 67 70 105q-27 25 -27 63q0 46 33.5 76t84.5 30q50 0 83.5 -30t33.5 -76q0 -37 -29 -64zM188 653q-19 0 -31.5 -11.5t-12.5 -29.5t12.5 -29.5t31.5 -11.5q18 0 30.5 11.5t12.5 29.5
t-12.5 29.5t-30.5 11.5zM188 380q29 0 50 18.5t21 44.5t-20.5 45t-50.5 19q-31 0 -51.5 -18.5t-20.5 -45.5q0 -26 21 -44.5t51 -18.5z" />
    <glyph glyph-name="nine.numr" horiz-adv-x="374" 
d="M183 713q72 0 117.5 -42.5t45.5 -109.5q0 -51 -50 -132l-78 -123l-101 -1l75 112q-9 -3 -26 -3q-62 0 -104 42.5t-42 104.5q0 64 47 108t116 44zM183 491q31 0 52.5 21t21.5 51q0 29 -21.5 49.5t-52.5 20.5t-53 -20.5t-22 -49.5q0 -30 22 -51t53 -21z" />
    <glyph glyph-name="zero.sups" horiz-adv-x="419" 
d="M210 364q-79 0 -129.5 58.5t-50.5 149.5t50.5 149t129.5 58t129 -58t50 -149t-50 -149.5t-129 -58.5zM210 444q40 0 65.5 36t25.5 92q0 55 -25.5 91t-65.5 36t-65.5 -36t-25.5 -91q0 -56 25.5 -92t65.5 -36z" />
    <glyph glyph-name="one.sups" horiz-adv-x="228" 
d="M5 615l172 178v-424h-89v246h-83z" />
    <glyph glyph-name="two.sups" horiz-adv-x="343" 
d="M227 498l-43 -51h120v-78h-289l145 178q3 3 15 18t17.5 22t13.5 19.5t11.5 22.5t3.5 19q0 23 -16.5 36.5t-44.5 13.5q-47 0 -74 -42l-62 48q20 33 57.5 53.5t78.5 20.5q68 0 109 -34t41 -91q0 -9 -2 -18.5t-4.5 -18t-7 -18.5t-8.5 -17t-10.5 -17t-10.5 -15.5t-11.5 -15.5
t-10.5 -13.5t-10 -12t-8 -9.5z" />
    <glyph glyph-name="three.sups" horiz-adv-x="357" 
d="M66 482q40 -40 94 -40q36 0 58 18.5t22 47.5q0 30 -24 49t-62 19q-42 0 -68 -4l85 121h-111v77h258l-99 -133q51 -11 80.5 -43.5t29.5 -85.5q0 -62 -49 -104t-120 -42q-88 0 -146 58z" />
    <glyph glyph-name="four.sups" horiz-adv-x="383" 
d="M304 790v-285h54v-77h-54v-60h-88v60h-208zM225 486v111l-88 -111h88z" />
    <glyph glyph-name="five.sups" horiz-adv-x="354" 
d="M69 479q39 -37 93 -37q36 0 58.5 18.5t22.5 47.5q0 26 -23 42t-61 16q-51 0 -103 -8l34 212h194v-77h-132l-9 -49q10 2 30 2q73 0 116 -37t43 -101q0 -61 -49.5 -103.5t-120.5 -42.5q-90 0 -146 58v8z" />
    <glyph glyph-name="six.sups" horiz-adv-x="374" 
d="M191 362q-72 0 -117.5 42t-45.5 109q0 51 50 132l78 124l101 1l-75 -113q9 3 26 3q62 0 104 -42.5t42 -104.5q0 -64 -46.5 -107.5t-116.5 -43.5zM191 583q-31 0 -52.5 -21t-21.5 -51q0 -29 21.5 -49t52.5 -20t53 20t22 49q0 30 -22 51t-53 21z" />
    <glyph glyph-name="seven.sups" horiz-adv-x="303" 
d="M168 692h-144v79h267l-150 -402h-96z" />
    <glyph glyph-name="eight.sups" horiz-adv-x="376" 
d="M277 609q72 -39 72 -104q0 -60 -47 -101.5t-113 -41.5q-70 0 -115.5 40t-45.5 103q0 67 70 105q-27 25 -27 63q0 46 33.5 76t84.5 30q50 0 83.5 -30t33.5 -76q0 -37 -29 -64zM189 715q-19 0 -31.5 -11.5t-12.5 -29.5t12.5 -29.5t31.5 -11.5q18 0 30.5 11.5t12.5 29.5
t-12.5 29.5t-30.5 11.5zM189 442q29 0 50 18.5t21 44.5t-20.5 45t-50.5 19q-31 0 -51.5 -18.5t-20.5 -45.5q0 -26 21 -44.5t51 -18.5z" />
    <glyph glyph-name="nine.sups" horiz-adv-x="374" 
d="M183 777q72 0 117.5 -42.5t45.5 -109.5q0 -51 -50 -132l-78 -123l-101 -1l75 112q-9 -3 -26 -3q-62 0 -104 42.5t-42 104.5q0 64 47 108t116 44zM183 555q31 0 52.5 21t21.5 51q0 29 -21.5 49.5t-52.5 20.5t-53 -20.5t-22 -49.5q0 -30 22 -51t53 -21z" />
    <glyph glyph-name="periodcentered.case" horiz-adv-x="263" 
d="M132 252q-36 0 -62.5 26.5t-26.5 61.5q0 36 26.5 62.5t62.5 26.5t62.5 -26.5t25.5 -62.5q-1 -35 -27 -61.5t-61 -26.5z" />
    <glyph glyph-name="bullet.case" horiz-adv-x="399" 
d="M199 207q-60 0 -97 37.5t-37 94.5q0 56 37 93t97 37t97.5 -37t37.5 -93q0 -57 -37.5 -94.5t-97.5 -37.5z" />
    <glyph glyph-name="exclamdown.case" horiz-adv-x="277" 
d="M227 604q1 -36 -26 -62.5t-62 -26.5q-36 0 -62.5 26.5t-26.5 62.5q0 35 26.5 61.5t62.5 26.5q35 0 61 -26.5t27 -61.5zM74 -44v494h130v-494h-130z" />
    <glyph glyph-name="questiondown.case" horiz-adv-x="461" 
d="M251 692q36 0 62.5 -26.5t26.5 -61.5q0 -36 -26.5 -62.5t-62.5 -26.5q-35 0 -62 26.5t-26 62.5q1 35 27 61.5t61 26.5zM435 66q-55 -121 -181 -121q-88 0 -150 50t-62 130q0 93 98 216l88 112l92 -71l-84 -107q-64 -82 -64 -138q0 -30 23.5 -48.5t58.5 -18.5
q33 0 58 19.5t37 52.5z" />
    <glyph glyph-name="braceleft.case" horiz-adv-x="320" 
d="M251 -123q-77 0 -120.5 41t-43.5 119v226l-70 100l70 100v226q0 78 43.5 119t120.5 41h48v-98h-33q-36 0 -54.5 -17t-18.5 -59v-239l-58 -73l58 -73v-239q0 -42 18.5 -59t54.5 -17h33v-98h-48z" />
    <glyph glyph-name="braceright.case" horiz-adv-x="320" 
d="M69 -123h-48v98h33q36 0 54.5 17t18.5 59v239l58 73l-58 73v239q0 42 -18.5 59t-54.5 17h-33v98h48q77 0 120.5 -41t43.5 -119v-226l70 -100l-70 -100v-226q0 -78 -43.5 -119t-120.5 -41z" />
    <glyph glyph-name="bracketleft.case" horiz-adv-x="315" 
d="M72 835h222v-97h-116v-752h116v-97h-222v946z" />
    <glyph glyph-name="bracketright.case" horiz-adv-x="315" 
d="M243 835v-946h-222v97h116v752h-116v97h222z" />
    <glyph glyph-name="parenleft.case" horiz-adv-x="302" 
d="M155 366q0 -121 38.5 -249t92.5 -205l-94 -50q-61 83 -108.5 223t-47.5 281t47.5 281t108.5 223l94 -50q-54 -77 -92.5 -205t-38.5 -249z" />
    <glyph glyph-name="parenright.case" horiz-adv-x="302" 
d="M16 820l94 50q61 -83 108.5 -223t47.5 -281t-47.5 -281t-108.5 -223l-94 50q54 77 92.5 205t38.5 249t-38.5 249t-92.5 205z" />
    <glyph glyph-name="emdash.case" horiz-adv-x="863" 
d="M56 391h751v-102h-751v102z" />
    <glyph glyph-name="endash.case" horiz-adv-x="575" 
d="M56 391h463v-102h-463v102z" />
    <glyph glyph-name="hyphen.case" horiz-adv-x="404" 
d="M56 391h292v-102h-292v102z" />
    <glyph glyph-name="uni2010.case" horiz-adv-x="404" 
d="M56 391h292v-102h-292v102z" />
    <glyph glyph-name="uni2011.case" horiz-adv-x="404" 
d="M56 391h292v-102h-292v102z" />
    <glyph glyph-name="guillemotleft.case" horiz-adv-x="611" 
d="M150 338l166 -214h-120l-170 214l170 214h120zM413 338l166 -214h-120l-170 214l170 214h120z" />
    <glyph glyph-name="guillemotright.case" horiz-adv-x="609" 
d="M195 339l-166 214h120l170 -214l-170 -214h-120zM458 339l-166 214h120l170 -214l-170 -214h-120z" />
    <glyph glyph-name="guilsinglleft.case" horiz-adv-x="347" 
d="M150 342l166 -214h-120l-170 214l170 214h120z" />
    <glyph glyph-name="guilsinglright.case" horiz-adv-x="346" 
d="M195 343l-166 214h120l170 -214l-170 -214h-120z" />
    <glyph glyph-name="uni20A9.cv01" horiz-adv-x="1024" 
d="M979 398h-122l-26 -76h148v-102h-184l-82 -232h-36l-81 232h-170l-81 -232h-35l-82 232h-184v102h148l-27 76h-121v102h85l-79 224h126l77 -224h158l83 236h35l83 -236h158l77 224h125l-79 -224h86v-102zM289 398l26 -76h33l26 76h-85zM461 322h100l-26 76h-48zM708 322
l26 76h-85l26 -76h33z" />
    <glyph glyph-name="minus.case" 
d="M60 391h479v-102h-479v102z" />
    <glyph glyph-name="uni0326.alt" horiz-adv-x="0" 
d="M-340 775h78v-191h-144z" />
    <glyph glyph-name="cedilla.case" 
d="M280 -31q39 0 61 -20t22 -46q0 -34 -29.5 -58t-70.5 -24q-47 0 -95 10l11 64q37 -13 68 -13q25 0 25 21q0 32 -91 33l43 127h86l-32 -95z" />
    <glyph glyph-name="ogonek.i.case" 
d="M315 -179q-49 0 -80.5 27t-31.5 64q0 53 53 88l54 35l83 -35l-42 -19q-54 -24 -54 -54q0 -28 33 -28q28 0 54 18l24 -73q-39 -23 -93 -23z" />
    <glyph glyph-name="ogonek.case" 
d="M315 -179q-49 0 -80.5 27t-31.5 64q0 53 53 88l54 35l83 -35l-42 -19q-54 -24 -54 -54q0 -28 33 -28q28 0 54 18l24 -73q-39 -23 -93 -23z" />
    <glyph glyph-name="ogonek.i" 
d="M315 -179q-49 0 -80.5 27t-31.5 64q0 53 53 88l54 35l83 -35l-42 -19q-54 -24 -54 -54q0 -28 33 -28q28 0 54 18l24 -73q-39 -23 -93 -23z" />
    <glyph glyph-name="dotaccent.l" 
d="M300 591q-32 0 -55 22.5t-23 54.5t23 55t55 23t55 -23t22 -55t-23.5 -54.5t-53.5 -22.5z" />
    <glyph glyph-name="caron.slovak" horiz-adv-x="310" 
d="M95 710h122l-38 -234h-84v234z" />
    </font>
</defs>
</svg>
